+ ShareSpark.net »  :::: Dubbed Zone (Dubbed English in Hindi) » English Movies Dubbed in Hindi
|- The Foreigner 2017 720p Esub BDRip 5.1 Dual Audio English Hindi GOPISAHI


New Promotions of ShareSpark Member's (January 2018) New
Tag users in topic | Receive notifications when you are tagged

The Foreigner 2017 720p Esub BDRip 5.1 Dual Audio English Hindi GOPISAHI

0 Members and 1 Guest are viewing this topic.

January 02, 2018, 07:59:38 PM
  • Addic7ed
  • Hot Member
  • ****
  • Topic Author
  • Thank You: 288
  • Reputation: 67
  • Activity:
    59.4%
  • Country: in
  • Posts: 571
  • Topics: 532
  • Join Date: Oct 2013
  • ShareSpark Member

Format                         : Matroska
Format version                 : Version 4 / Version 2
File size                      : 685 MiB
Duration                       : 1 h 50 min
Overall bit rate               : 868 kb/s
Movie name                     : The Foreigner 2017

Video
Format                         : AVC
Codec ID                       : V_MPEG4/ISO/AVC
Duration                       : 1 h 50 min
Bit rate                       : 700 kb/s
Width                          : 1 272 pixels
Height                         : 496 pixels
Display aspect ratio           : 2.565
Frame rate mode                : Constant
Frame rate                     : 23.976 (24000/1001) FPS
Stream size                    : 552 MiB (81%)
Writing library                : x264

Audio #1
Format                         : AAC
Duration                       : 1 h 50 min
Bit rate                       : 82.8 kb/s
Channel(s)                     : 6 channels
Channel positions              : Front: L C R, Side: L R, LFE
Sampling rate                  : 44.1 kHz
Frame rate                     : 43.066 FPS (1024 SPF)
Stream size                    : 65.4 MiB (10%)
Language                       : English

Audio #2
Format                         : AAC
Duration                       : 1 h 50 min
Bit rate                       : 82.5 kb/s
Channel(s)                     : 6 channels
Channel positions              : Front: L C R, Side: L R, LFE
Sampling rate                  : 44.1 kHz
Frame rate                     : 43.066 FPS (1024 SPF)
Stream size                    : 65.1 MiB (10%)
Language                       : Hindi

Text
Language                       : English





Share this topic on FacebookShare this topic on GoogleShare this topic on MySpaceShare this topic on TwitterShare this topic on Yahoo



Thanks given by:


Tags:
 

Related Topics





Back to top