+ ShareSpark.net »  :::: Dubbed Zone (Dubbed English in Hindi) » English Movies Dubbed in Hindi » Animation Movies
|- The New Adventures Of Max 2017 720p HD Dual Audio Hindi Indonesian GOSA @ GOPISAHI

10% Off with Visa

The New Adventures Of Max 2017 720p HD Dual Audio Hindi Indonesian GOSA @ GOPISAHI

0 Members and 1 Guest are viewing this topic.

January 12, 2018, 01:49:41 PM
  • Addic7ed
  • Special Member
  • ****
  • Topic Author
  • Thank You: 394
  • Reputation: 89
  • Activity:
    30.8%
  • Country: in
  • Posts: 815
  • Topics: 770
  • Join Date: Oct 2013
  • ShareSpark Member

Format                         : Matroska
Format version                 : Version 4 / Version 2
File size                      : 220 MiB
Duration                       : 45 min 43 s
Overall bit rate               : 673 kb/s
Movie name                     : The New Adventures Of Max 2017

Video
Format                         : AVC
Codec ID                       : V_MPEG4/ISO/AVC
Duration                       : 45 min 43 s
Bit rate                       : 500 kb/s
Width                          : 1 280 pixels
Height                         : 720 pixels
Display aspect ratio           : 16:9
Frame rate mode                : Constant
Frame rate                     : 24.000 FPS
Stream size                    : 164 MiB (74%)
Writing library                : x264

Audio #1
Format                         : AAC
Duration                       : 45 min 43 s
Bit rate                       : 90.3 kb/s
Channel(s)                     : 6 channels
Channel positions              : Front: L C R, Side: L R, LFE
Sampling rate                  : 44.1 kHz
Frame rate                     : 43.066 FPS (1024 SPF)
Compression mode               : Lossy
Stream size                    : 29.5 MiB (13%)
Language                       : INDO


Audio #2
Format                         : AAC
Duration                       : 45 min 43 s
Bit rate                       : 79.9 kb/s
Channel(s)                     : 6 channels
Channel positions              : Front: L C R, Side: L R, LFE
Sampling rate                  : 44.1 kHz
Frame rate                     : 43.066 FPS (1024 SPF)
Stream size                    : 26.1 MiB (12%)
Language                       : Hindi





Share this topic on FacebookShare this topic on GoogleShare this topic on MySpaceShare this topic on TwitterShare this topic on Yahoo



Thanks given by:


Tags:
 

Related Topics




Back to top