+ ShareSpark.net »  :::: Dubbed Zone (Dubbed English in Hindi) » English Movies Dubbed in Hindi
|- The Legend Of Tarzan (2016) 720p BluRay x264 [Dual-Audio][English DD 5.1 + Hindi DD 5.1] - Mafiaking


The Legend Of Tarzan (2016) 720p BluRay x264 [Dual-Audio][English DD 5.1 + Hindi DD 5.1] - Mafiaking

0 Members and 1 Guest are viewing this topic.

October 23, 2016, 09:00:13 AM
  • ♫♫♣ B૦ՐՈ T૦ H૯Նƿ ♣♫♫
  • Elite Moderator
  • Legend Member
  • ****
  • Topic Author
  • Thank You: 1079
  • Reputation: 723
  • Activity:
    79.6%
  • Country: dk
  • Posts: 2710
  • Topics: 1192
  • Join Date: Jan 2013
  • ♠§§ Dσп'т Tαʟκ Jυƨт Acт §§ Dσп'т Sαч Jυƨт Sнσш §§♠
:title:
The Legend Of Tarzan (2016) 720p BluRay x264 [Dual-Audio][English DD 5.1 + Hindi DD 5.1] - Mafiaking - M2Tv




:info:
General
Unique ID : 194423468709576063953364235237906721757 (0x924499185BEF89A58D8713BC96C02BDD)
Complete name : The Legend Of Tarzan (2016) 720p BluRay x264 [Dual-Audio][English DD 5.1 + Hindi DD 5.1] - Mafiaking - M2Tv.mkv
Format : Matroska
Format version : Version 4 / Version 2
File size : 1.07 GiB
Duration : 1 h 49 min
Overall bit rate : 1 399 kb/s
Movie name : The Legend Of Tarzan (2016) 720p BluRay x264 [Dual-Audio][English DD 5.1 + Hindi DD 5.1] - Mafiaking - M2Tv
Encoded date : UTC 2016-10-22 19:17:08
Writing application : mkvmerge v7.0.0 ('Where We Going') 32bit built on Jun 9 2014 15:08:34
Writing library : libebml v1.3.0 + libmatroska v1.4.1

Video
ID : 1
Format : AVC
Format/Info : Advanced Video Codec
Format profile : Hi[email protected]
Format settings, CABAC : Yes
Format settings, ReFrames : 3 frames
Codec ID : V_MPEG4/ISO/AVC
Duration : 1 h 49 min
Bit rate : 950 kb/s
Width : 1 280 pixels
Height : 536 pixels
Display aspect ratio : 2.40:1
Frame rate mode : Constant
Frame rate : 23.976 (24000/1001) FPS
Color space : YUV
Chroma subsampling : 4:2:0
Bit depth : 8 bits
Scan type : Progressive
Bits/(Pixel*Frame) : 0.058
Stream size : 747 MiB (68%)
Title : Mafiaking
Language : English
Default : Yes
Forced : No

Audio #1
ID : 2
Format : AC-3
Format/Info : Audio Coding 3
Mode extension : CM (complete main)
Format settings, Endianness : Big
Codec ID : A_AC3
Duration : 1 h 49 min
Bit rate mode : Constant
Bit rate : 224 kb/s
Channel(s) : 6 channels
Channel positions : Front: L C R, Side: L R, LFE
Sampling rate : 48.0 kHz
Frame rate : 31.250 FPS (1536 spf)
Compression mode : Lossy
Stream size : 176 MiB (16%)
Title : Mafiaking
Language : Hindi
Default : Yes
Forced : No

Audio #2
ID : 3
Format : AC-3
Format/Info : Audio Coding 3
Mode extension : CM (complete main)
Format settings, Endianness : Big
Codec ID : A_AC3
Duration : 1 h 49 min
Bit rate mode : Constant
Bit rate : 224 kb/s
Channel(s) : 6 channels
Channel positions : Front: L C R, Side: L R, LFE
Sampling rate : 48.0 kHz
Frame rate : 31.250 FPS (1536 spf)
Compression mode : Lossy
Stream size : 176 MiB (16%)
Title : Mafiaking
Language : English
Default : No
Forced : No



:ss:





:download:
Sample ->


Full Movie

















Share this topic on FacebookShare this topic on GoogleShare this topic on MySpaceShare this topic on TwitterShare this topic on Yahoo

« Last Edit: October 23, 2016, 09:05:40 AM by ♥[--K4Krish--]♥ »



If U like any post, then say thanks 2 d uploader by posting in his topic, adding thanks & reputes 2 him.:)

Thanks given by:


Tags:
 

Related Topics





Back to top