+ ShareSpark.net »  :::: Hollywood Zone » Hollywood Movies (Original Rips) » High Resolution Movies
|- ClownTown (2016) 1080p BluRay H264 AAC -RARBG [1.6GB]

Pantry 600 Back

ClownTown (2016) 1080p BluRay H264 AAC -RARBG [1.6GB]

0 Members and 1 Guest are viewing this topic.

October 06, 2017, 03:22:56 PM
  • ♫♫♣ B૦ՐՈ T૦ H૯Նƿ ♣♫♫
  • Global Moderator
  • Legend Member
  • *****
  • Topic Author
  • Thank You: 1096
  • Reputation: 725
  • Activity:
    0.2%
  • Country: dk
  • Posts: 2712
  • Topics: 1192
  • Join Date: Jan 2013
  • ♠§§ Dσп'т Tαʟκ Jυƨт Acт §§ Dσп'т Sαч Jυƨт Sнσш §§♠
:title:
ClownTown (2016) 1080p BluRay H264 AAC -RARBG




:info:
Video
ID                                       : 1
Format                                   : AVC
Format/Info                              : Advanced Video Codec
Format profile                           : [email protected]
Format settings, CABAC                   : Yes
Format settings, ReFrames                : 4 frames
Codec ID                                 : avc1
Codec ID/Info                            : Advanced Video Coding
Duration                                 : 1h 25mn
Bit rate                                 : 2 500 Kbps
Width                                    : 1 920 pixels
Height                                   : 1 080 pixels
Display aspect ratio                     : 16:9
Frame rate mode                          : Constant
Frame rate                               : 23.976 (23976/1000) fps
Color space                              : YUV
Chroma subsampling                       : 4:2:0
Bit depth                                : 8 bits
Scan type                                : Progressive
Bits/(Pixel*Frame)                       : 0.050
Stream size                              : 1.49 GiB (92%)
Writing library                          : x264 core 152 r2851M ba24899
Encoded date                             : UTC 2017-10-06 05:36:20
Tagged date                              : UTC 2017-10-06 05:36:20

Audio
ID                                       : 2
Format                                   : AAC
Format/Info                              : Advanced Audio Codec
Format profile                           : LC
Codec ID                                 : 40
Duration                                 : 1h 25mn
Bit rate mode                            : Constant
Bit rate                                 : 224 Kbps
Channel(s)                               : 2 channels
Channel(s)_Original                      : 6 channels
Channel positions                        : Front: L C R, Side: L R, LFE
Sampling rate                            : 48.0 KHz
Frame rate                               : 46.875 fps (1024 spf)
Compression mode                         : Lossy
Stream size                              : 137 MiB (8%)
Language                                 : English
Default                                  : Yes
Alternate group                          : 1
Encoded date                             : UTC 2017-10-06 05:36:20
Tagged date                              : UTC 2017-10-06 05:36:20

:ss:






:download:







Share this topic on FacebookShare this topic on GoogleShare this topic on MySpaceShare this topic on TwitterShare this topic on Yahoo

« Last Edit: October 06, 2017, 03:30:41 PM by ♥[--K4Krish--]♥ »



If U like any post, then say thanks 2 d uploader by posting in his topic, adding thanks & reputes 2 him.:)

Thanks given by:


Tags:
 

Related Topics

  Subject / Started by Replies Last post
1 Replies
1869 Views
Last post August 21, 2014, 08:54:57 AM
by sσи¡иdєяsσиý
0 Replies
477 Views
Last post September 23, 2015, 11:36:26 AM
by -Ð@Rk.ÐèVi£-
0 Replies
2174 Views
Last post February 24, 2016, 03:00:25 AM
by LOST
0 Replies
547 Views
Last post September 27, 2016, 08:32:52 PM
by __B!RoH!_MoN__
0 Replies
365 Views
Last post October 14, 2017, 06:55:42 PM
by ♥[--K4Krish--]♥



Back to top