+ ShareSpark.net »  :::: Hollywood Zone » Hollywood Movies (Original Rips) » High Resolution Movies
|- Better Watch Out (2016) 1080p WEB-DL DD5.1 H264 -FGT [3GB]

DTH Recharges 20% Back

Better Watch Out (2016) 1080p WEB-DL DD5.1 H264 -FGT [3GB]

0 Members and 1 Guest are viewing this topic.

October 06, 2017, 03:34:02 PM
  • ♫♫♣ B૦ՐՈ T૦ H૯Նƿ ♣♫♫
  • Global Moderator
  • Legend Member
  • *****
  • Topic Author
  • Thank You: 1096
  • Reputation: 725
  • Activity:
    0.2%
  • Country: dk
  • Posts: 2712
  • Topics: 1192
  • Join Date: Jan 2013
  • ♠§§ Dσп'т Tαʟκ Jυƨт Acт §§ Dσп'т Sαч Jυƨт Sнσш §§♠
:title:
Better Watch Out (2016) 1080p WEB-DL DD5.1 H264 -FGT




:info:
Video
ID                                       : 1
Format                                   : AVC
Format/Info                              : Advanced Video Codec
Format profile                           : [email protected]
Format settings, CABAC                   : Yes
Format settings, ReFrames                : 5 frames
Codec ID                                 : V_MPEG4/ISO/AVC
Duration                                 : 1 h 28 min
Bit rate                                 : 4 468 kb/s
Width                                    : 1 920 pixels
Height                                   : 802 pixels
Display aspect ratio                     : 2.40:1
Frame rate mode                          : Constant
Frame rate                               : 24.000 FPS
Color space                              : YUV
Chroma subsampling                       : 4:2:0
Bit depth                                : 8 bits
Scan type                                : Progressive
Bits/(Pixel*Frame)                       : 0.121
Stream size                              : 2.77 GiB (90%)
Title                                    : Better.Watch.Out.2016.1080p.WEB-DL.DD5.1.H264-FGT
Language                                 : English
Default                                  : Yes
Forced                                   : No
Color range                              : Limited
Color primaries                          : BT.709
Transfer characteristics                 : BT.709
Matrix coefficients                      : BT.709

Audio
ID                                       : 2
Format                                   : AC-3
Format/Info                              : Audio Coding 3
Format settings, Endianness              : Big
Codec ID                                 : A_AC3
Duration                                 : 1 h 28 min
Bit rate mode                            : Constant
Bit rate                                 : 384 kb/s
Channel(s)                               : 6 channels
Channel positions                        : Front: L C R, Side: L R, LFE
Sampling rate                            : 48.0 kHz
Frame rate                               : 31.250 FPS (1536 spf)
Bit depth                                : 16 bits
Compression mode                         : Lossy
Delay relative to video                  : -42 ms
Stream size                              : 244 MiB (8%)
Title                                    : Better.Watch.Out.2016.1080p.WEB-DL.DD5.1.H264-FGT
Language                                 : English
Service kind                             : Complete Main
Default                                  : Yes
Forced                                   : No

Text
ID                                       : 3
Format                                   : UTF-8
Codec ID                                 : S_TEXT/UTF8
Codec ID/Info                            : UTF-8 Plain Text
Language                                 : English
Default                                  : Yes
Forced                                   : No

Menu
00:00:00.000                             : en:1
00:10:26.458                             : en:2
00:21:20.499                             : en:3
00:33:17.999                             : en:4
00:44:40.582                             : en:5
00:54:47.582                             : en:6
01:07:20.915                             : en:7
01:17:48.706                             : en:8

:ss:






:download:




Share this topic on FacebookShare this topic on GoogleShare this topic on MySpaceShare this topic on TwitterShare this topic on Yahoo

« Last Edit: October 06, 2017, 03:46:57 PM by ♥[--K4Krish--]♥ »



If U like any post, then say thanks 2 d uploader by posting in his topic, adding thanks & reputes 2 him.:)

Thanks given by:


Tags:
 

Related Topics

  Subject / Started by Replies Last post
1 Replies
462 Views
Last post June 23, 2014, 05:09:11 PM
by ıllıllı αнʍє иυя ıllıllı
0 Replies
490 Views
Last post September 02, 2016, 03:51:33 PM
by ♥ Mann ♥
0 Replies
472 Views
Last post September 21, 2016, 03:07:56 PM
by -Ð@Rk.ÐèVi£-
0 Replies
446 Views
Last post January 10, 2017, 06:10:29 PM
by PSYCHO
0 Replies
461 Views
Last post August 04, 2017, 12:55:13 PM
by anoxdleo



Back to top