+ ShareSpark.net »  :::: Hollywood Zone » Hollywood Movies (Original Rips) » High Resolution Movies
|- Walking Out (2017) 1080p WEB-DL DD5.1 H264 -FGT [3.3GB]

Subscribe and Save

Walking Out (2017) 1080p WEB-DL DD5.1 H264 -FGT [3.3GB]

0 Members and 1 Guest are viewing this topic.

October 06, 2017, 03:38:58 PM
  • ♫♫♣ B૦ՐՈ T૦ H૯Նƿ ♣♫♫
  • Global Moderator
  • Legend Member
  • *****
  • Topic Author
  • Thank You: 1098
  • Reputation: 725
  • Activity:
    0%
  • Country: dk
  • Posts: 2712
  • Topics: 1192
  • Join Date: Jan 2013
  • ♠§§ Dσп'т Tαʟκ Jυƨт Acт §§ Dσп'т Sαч Jυƨт Sнσш §§♠
:title:
Walking Out (2017) 1080p WEB-DL DD5.1 H264 -FGT




:info:
Video
ID                                       : 1
Format                                   : AVC
Format/Info                              : Advanced Video Codec
Format profile                           : [email protected]
Format settings, CABAC                   : Yes
Format settings, ReFrames                : 5 frames
Codec ID                                 : V_MPEG4/ISO/AVC
Duration                                 : 1 h 35 min
Bit rate                                 : 4 421 kb/s
Width                                    : 1 920 pixels
Height                                   : 796 pixels
Display aspect ratio                     : 2.40:1
Frame rate mode                          : Constant
Frame rate                               : 23.976 (24000/1001) FPS
Color space                              : YUV
Chroma subsampling                       : 4:2:0
Bit depth                                : 8 bits
Scan type                                : Progressive
Bits/(Pixel*Frame)                       : 0.121
Stream size                              : 2.96 GiB (90%)
Title                                    : Walking.Out.2017.1080p.WEB-DL.DD5.1.H264-FGT
Language                                 : English
Default                                  : Yes
Forced                                   : No
Color range                              : Limited
Color primaries                          : BT.709
Transfer characteristics                 : BT.709
Matrix coefficients                      : BT.709

Audio
ID                                       : 2
Format                                   : AC-3
Format/Info                              : Audio Coding 3
Format settings, Endianness              : Big
Codec ID                                 : A_AC3
Duration                                 : 1 h 35 min
Bit rate mode                            : Constant
Bit rate                                 : 384 kb/s
Channel(s)                               : 6 channels
Channel positions                        : Front: L C R, Side: L R, LFE
Sampling rate                            : 48.0 kHz
Frame rate                               : 31.250 FPS (1536 spf)
Bit depth                                : 16 bits
Compression mode                         : Lossy
Delay relative to video                  : -42 ms
Stream size                              : 263 MiB (8%)
Title                                    : Walking.Out.2017.1080p.WEB-DL.DD5.1.H264-FGT
Language                                 : English
Service kind                             : Complete Main
Default                                  : Yes
Forced                                   : No

Text
ID                                       : 3
Format                                   : UTF-8
Codec ID                                 : S_TEXT/UTF8
Codec ID/Info                            : UTF-8 Plain Text
Language                                 : English
Default                                  : Yes
Forced                                   : No

Menu
00:00:00.000                             : en:1
00:12:28.000                             : en:2
00:25:06.000                             : en:3
00:34:49.000                             : en:4
00:44:48.000                             : en:5
00:55:02.000                             : en:6
01:07:30.000                             : en:7
01:18:18.000                             : en:8
01:30:45.000                             : en:9


:ss:






:download:




Share this topic on FacebookShare this topic on GoogleShare this topic on MySpaceShare this topic on TwitterShare this topic on Yahoo

« Last Edit: October 06, 2017, 03:58:11 PM by ♥[--K4Krish--]♥ »



If U like any post, then say thanks 2 d uploader by posting in his topic, adding thanks & reputes 2 him.:)

Tags:
 

Related Topics

  Subject / Started by Replies Last post
2 Replies
1232 Views
Last post March 20, 2017, 02:28:49 PM
by -Ð@Rk.ÐèVi£-
0 Replies
493 Views
Last post May 19, 2017, 04:52:39 PM
by Rάήνίјάч1234
0 Replies
736 Views
Last post August 22, 2017, 03:02:46 AM
by Rάήνίјάч1234
0 Replies
342 Views
Last post August 29, 2017, 09:24:41 AM
by Rάήνίјάч1234
0 Replies
213 Views
Last post October 06, 2017, 02:38:25 PM
by PSYCHO



Back to top