+ ShareSpark.net »  :::: Hollywood Zone » Hollywood Movies (Original Rips) » High Resolution Movies
|- Annabelle 2 Creation (2017) 720p BluRay x264 - SPARKS [4.4GB]

Add 1000 Get 100 Back

Annabelle 2 Creation (2017) 720p BluRay x264 - SPARKS [4.4GB]

0 Members and 1 Guest are viewing this topic.

October 12, 2017, 01:44:31 PM
  • ♫♫♣ B૦ՐՈ T૦ H૯Նƿ ♣♫♫
  • Global Moderator
  • Legend Member
  • *****
  • Topic Author
  • Thank You: 1096
  • Reputation: 725
  • Activity:
    0.2%
  • Country: dk
  • Posts: 2712
  • Topics: 1192
  • Join Date: Jan 2013
  • ♠§§ Dσп'т Tαʟκ Jυƨт Acт §§ Dσп'т Sαч Jυƨт Sнσш §§♠
:title:
Annabelle 2 Creation (2017) 720p BluRay x264 - SPARKS




:info:
General
Format :   Matroska
Format version :   Version 4 / Version 2
File size :   4.37 GiB
Duration :   1 h 49 min
Overall bit rate :   5 703 kb/s
Encoded date :   UTC 2017-10-11 20:08:48
Writing application :   mkvmerge v8.3.0 ('Over the Horizon') 64bit
Writing library :   libebml v1.3.1 + libmatroska v1.4.2

Video
ID :   1
Format :   AVC
Format/Info :   Advanced Video Codec
Format profile :   High@L4.1
Format settings, CABAC :   Yes
Format settings, RefFrames :   5 frames
Codec ID :   V_MPEG4/ISO/AVC
Duration :   1 h 49 min
Bit rate :   5 062 kb/s
Width :   1 280 pixels
Height :   536 pixels
Display aspect ratio :   2.40:1
Frame rate mode :   Constant
Frame rate :   23.976 FPS
Color space :   YUV
Chroma subsampling :   4:2:0
Bit depth :   8 bits
Scan type :   Progressive
Bits/(Pixel*Frame) :   0.308
Stream size :   3.88 GiB (89%)
Writing library :   x264 core 152 r2851 ba24899
Language :   English
Default :   Yes
Forced :   No

Audio
ID :   2
Format :   AC-3
Format/Info :   Audio Coding 3
Format settings, Endianness :   Big
Codec ID :   A_AC3
Duration :   1 h 49 min
Bit rate mode :   Constant
Bit rate :   640 kb/s
Channel(s) :   6 channels
Channel positions :   Front: L C R, Side: L R, LFE
Sampling rate :   48.0 kHz
Frame rate :   31.250 FPS (1536 SPF)
Bit depth :   16 bits
Compression mode :   Lossy
Stream size :   502 MiB (11%)
Language :   English
Service kind :   Complete Main
Default :   Yes
Forced :   No

:ss:

 
:download:




Share this topic on FacebookShare this topic on GoogleShare this topic on MySpaceShare this topic on TwitterShare this topic on Yahoo

« Last Edit: October 12, 2017, 02:12:38 PM by ♥[--K4Krish--]♥ »



If U like any post, then say thanks 2 d uploader by posting in his topic, adding thanks & reputes 2 him.:)

Thanks given by:


Tags:
 

Related Topics




Back to top