+ ShareSpark.net »  :::: Hollywood Zone » Hollywood Movies (Original Rips) » High Resolution Movies
|- Atomic Blonde (2017) 720p KORSUB HDRip x264 AAC2.0 - STUTTERSHIT [3GB]

DTH Recharges 20% Back

Atomic Blonde (2017) 720p KORSUB HDRip x264 AAC2.0 - STUTTERSHIT [3GB]

0 Members and 1 Guest are viewing this topic.

October 14, 2017, 04:15:20 AM
  • ♫♫♣ B૦ՐՈ T૦ H૯Նƿ ♣♫♫
  • Global Moderator
  • Legend Member
  • *****
  • Topic Author
  • Thank You: 1096
  • Reputation: 725
  • Activity:
    0.2%
  • Country: dk
  • Posts: 2712
  • Topics: 1192
  • Join Date: Jan 2013
  • ♠§§ Dσп'т Tαʟκ Jυƨт Acт §§ Dσп'т Sαч Jυƨт Sнσш §§♠
:title:
Atomic Blonde (2017) 720p KORSUB HDRip x264 AAC2.0 - STUTTERSHIT




:info:
Video
ID                                       : 1
Format                                   : AVC
Format/Info                              : Advanced Video Codec
Format profile                           : [email protected]
Format settings, CABAC                   : Yes
Format settings, ReFrames                : 4 frames
Codec ID                                 : avc1
Codec ID/Info                            : Advanced Video Coding
Duration                                 : 1 h 54 min
Bit rate                                 : 3 500 kb/s
Width                                    : 1 280 pixels
Height                                   : 536 pixels
Display aspect ratio                     : 2.40:1
Frame rate mode                          : Constant
Frame rate                               : 23.976 FPS
Color space                              : YUV
Chroma subsampling                       : 4:2:0
Bit depth                                : 8 bits
Scan type                                : Progressive
Bits/(Pixel*Frame)                       : 0.213
Stream size                              : 2.84 GiB (94%)
Title                                    : Atomic.Blonde.2017.720p.KORSUB.HDRip.x264.AAC2.0-STUTTERSHIT
Writing library                          : x264 core 152 r2851M ba24899

Audio
ID                                       : 2
Format                                   : AAC
Format/Info                              : Advanced Audio Codec
Format profile                           : LC
Codec ID                                 : 40
Duration                                 : 1 h 54 min
Bit rate mode                            : Constant
Bit rate                                 : 224 kb/s
Channel(s)                               : 2 channels
Channel positions                        : Front: L R
Sampling rate                            : 48.0 kHz
Frame rate                               : 46.875 FPS (1024 spf)
Compression mode                         : Lossy
Stream size                              : 184 MiB (6%)
Title                                    : Atomic.Blonde.2017.720p.KORSUB.HDRip.x264.AAC2.0-STUTTERSHIT
Default                                  : Yes
Alternate group                          : 1


:ss:






:download:



Share this topic on FacebookShare this topic on GoogleShare this topic on MySpaceShare this topic on TwitterShare this topic on Yahoo




If U like any post, then say thanks 2 d uploader by posting in his topic, adding thanks & reputes 2 him.:)

Thanks given by:


Tags:
 

Related Topics




Back to top