+ ShareSpark.net »  :::: Hollywood Zone » Hollywood Movies (Original Rips) » High Resolution Movies
|- Bushwick (2017) 1080p BluRay H264 AAC - RARBG [1.8GB]


Mastercard 10% Off

Bushwick (2017) 1080p BluRay H264 AAC - RARBG [1.8GB]

0 Members and 1 Guest are viewing this topic.

October 15, 2017, 04:15:47 AM
  • ♫♫♣ B૦ՐՈ T૦ H૯Նƿ ♣♫♫
  • Global Moderator
  • Legend Member
  • *****
  • Topic Author
  • Thank You: 1103
  • Reputation: 725
  • Activity:
    0%
  • Country: dk
  • Posts: 2712
  • Topics: 1192
  • Join Date: Jan 2013
  • ♠§§ Dσп'т Tαʟκ Jυƨт Acт §§ Dσп'т Sαч Jυƨт Sнσш §§♠
:title:
Bushwick (2017) 1080p BluRay H264 AAC - RARBG




:info:
Video
ID                                       : 1
Format                                   : AVC
Format/Info                              : Advanced Video Codec
Format profile                           : [email protected]
Format settings                          : CABAC / 4 Ref Frames
Format settings, CABAC                   : Yes
Format settings, RefFrames               : 4 frames
Codec ID                                 : avc1
Codec ID/Info                            : Advanced Video Coding
Duration                                 : 1 h 33 min
Bit rate                                 : 2 500 kb/s
Width                                    : 1 920 pixels
Height                                   : 800 pixels
Display aspect ratio                     : 2.40:1
Frame rate mode                          : Constant
Frame rate                               : 23.976 (23976/1000) FPS
Color space                              : YUV
Chroma subsampling                       : 4:2:0
Bit depth                                : 8 bits
Scan type                                : Progressive
Bits/(Pixel*Frame)                       : 0.068
Stream size                              : 1.64 GiB (92%)
Writing library                          : x264 core 152 r2851M ba24899
Encoded date                             : UTC 2017-10-14 18:46:33
Tagged date                              : UTC 2017-10-14 18:46:33

Audio
ID                                       : 2
Format                                   : AAC
Format/Info                              : Advanced Audio Codec
Format profile                           : LC
Codec ID                                 : mp4a-40-2
Duration                                 : 1 h 33 min
Bit rate mode                            : Constant
Bit rate                                 : 224 kb/s
Channel(s)                               : 2 channels
Channel(s)_Original                      : 6 channels
Channel positions                        : Front: L C R, Side: L R, LFE
Sampling rate                            : 48.0 kHz
Frame rate                               : 46.875 FPS (1024 SPF)
Compression mode                         : Lossy
Stream size                              : 150 MiB (8%)
Language                                 : English
Default                                  : Yes
Alternate group                          : 1
Encoded date                             : UTC 2017-10-14 18:46:33
Tagged date                              : UTC 2017-10-14 18:46:33

:ss:





:download:
Full Movie Links







Eng. Subtitle

Share this topic on FacebookShare this topic on GoogleShare this topic on MySpaceShare this topic on TwitterShare this topic on Yahoo




If U like any post, then say thanks 2 d uploader by posting in his topic, adding thanks & reputes 2 him.:)

Tags:
 

Related Topics

  Subject / Started by Replies Last post
0 Replies
477 Views
Last post May 19, 2017, 11:25:00 AM
by Rάήνίјάч1234
0 Replies
810 Views
Last post August 09, 2017, 10:22:04 PM
by dc7800
1 Replies
521 Views
Last post August 18, 2017, 11:10:34 AM
by ~~Ank!t~~
0 Replies
477 Views
Last post September 28, 2017, 10:51:41 AM
by ♥[--K4Krish--]♥
0 Replies
478 Views
Last post October 07, 2017, 08:23:12 AM
by ♥[--K4Krish--]♥




Back to top