ShareSpark.net

:::: Bollywood Zone => Regional Movies => Marathi Movies => Topic started by: -Ð@Rk.ÐèVi£- on December 26, 2016, 11:21:46 AM

Title: Ticha Umbartha (2016) 720p WebHD x264 ESub -DDR-Exclusive
Post by: -Ð@Rk.ÐèVi£- on December 26, 2016, 11:21:46 AM
(http://extraimago.com/images/2015/08/24/ddr_logo.png)

(https://extraimage.net/images/2016/12/24/f2cb89a9e8c5b6caf2bec7c0e09c3c8c.jpg)

(https://extraimage.net/images/2016/12/25/2198fab960c0c3493221c51f673bab69.jpg)

SPECS

Source: WEB @ DDR

Format : Matroska
File size : 1.48 GiB
Duration : 1 h 57 min
Overall bit rate : 1 804 kb/s

Video
ID : 1
Format : AVC
Format/Info : Advanced Video Codec
Format profile : [email protected]
Format settings, CABAC : Yes
Format settings, ReFrames : 1 frame
Format settings, GOP : M=1, N=25
Codec ID : V_MPEG4/ISO/AVC
Duration : 1 h 57 min
Bit rate mode : Constant
Bit rate : 1 802 kb/s
Nominal bit rate : 2 000 kb/s
Width : 1 280 pixels
Height : 720 pixels
Display aspect ratio : 16:9
Frame rate mode : Constant
Frame rate : 25.000 FPS
Color space : YUV
Chroma subsampling : 4:2:0
Bit depth : 8 bits
Scan type : Progressive
Bits/(Pixel*Frame) : 0.078
Stream size : 1.48 GiB (100%)
Language : English
Default : Yes
Forced : No

Text
ID : 2
Format : UTF-8
Codec ID : S_TEXT/UTF8
Codec ID/Info : UTF-8 Plain Text
Duration : 1 h 56 min
Bit rate : 59 b/s
Count of elements : 1648
Stream size : 50.5 KiB (0%)
Language : English
Default : Yes
Forced : No

(https://extraimage.net/images/2016/12/25/1e0a7049268543b0934b62a6d79b1ba4.th.png)(https://extraimage.net/images/2016/12/25/ae79440bfcacb05cbbd19348964cf97f.th.png)(https://extraimage.net/images/2016/12/25/59c71940537d1293a0ac719f74d5d839.th.png)



















http://www.torrable.com/mirrors/f443c6e5
Title: Re: Ticha Umbartha (2016) 720p WebHD x264 ESub -DDR-Exclusive
Post by: PSYCHO on December 26, 2016, 02:52:32 PM
THANKS BRO :thank: :rep:
Title: Re: Ticha Umbartha (2016) 720p WebHD x264 ESub -DDR-Exclusive
Post by: proyer on December 26, 2016, 11:35:11 PM
Thanks for the upload