ShareSpark.net

:::: Hollywood Zone => Hollywood Movies (Original Rips) => High Resolution Movies => Topic started by: ♥[--K4Krish--]♥ on September 29, 2017, 04:10:19 PM

Title: The Sound (2017) 1080p WEB-DL DD5.1 H264 - FGT [3.23GB]
Post by: ♥[--K4Krish--]♥ on September 29, 2017, 04:10:19 PM
:title:
The Sound (2017) 1080p WEB-DL DD5.1 H264 - FGT

(https://images-na.ssl-images-amazon.com/images/M/MV5BMjk4ZjEyMDY[email protected]@._V1_SY1000_CR0,0,675,1000_AL_.jpg)


:info:
Video
ID                                       : 1
Format                                   : AVC
Format/Info                              : Advanced Video Codec
Format profile                           : [email protected]
Format settings, CABAC                   : Yes
Format settings, ReFrames                : 5 frames
Codec ID                                 : V_MPEG4/ISO/AVC
Duration                                 : 1 h 32 min
Bit rate                                 : 4 608 kb/s
Width                                    : 1 904 pixels
Height                                   : 804 pixels
Display aspect ratio                     : 2.35:1
Frame rate mode                          : Constant
Frame rate                               : 23.976 (24000/1001) FPS
Color space                              : YUV
Chroma subsampling                       : 4:2:0
Bit depth                                : 8 bits
Scan type                                : Progressive
Bits/(Pixel*Frame)                       : 0.126
Stream size                              : 2.99 GiB (92%)
Title                                    : The.Sound.2017.1080p.WEB-DL.DD5.1.H264-FGT
Language                                 : English
Default                                  : Yes
Forced                                   : No
Color range                              : Limited
Color primaries                          : BT.709
Transfer characteristics                 : BT.709
Matrix coefficients                      : BT.709

Audio
ID                                       : 2
Format                                   : AC-3
Format/Info                              : Audio Coding 3
Format settings, Endianness              : Big
Codec ID                                 : A_AC3
Duration                                 : 1 h 32 min
Bit rate mode                            : Constant
Bit rate                                 : 384 kb/s
Channel(s)                               : 6 channels
Channel positions                        : Front: L C R, Side: L R, LFE
Sampling rate                            : 48.0 kHz
Frame rate                               : 31.250 FPS (1536 spf)
Bit depth                                : 16 bits
Compression mode                         : Lossy
Delay relative to video                  : -42 ms
Stream size                              : 255 MiB (8%)
Title                                    : The.Sound.2017.1080p.WEB-DL.DD5.1.H264-FGT
Language                                 : English
Service kind                             : Complete Main
Default                                  : Yes
Forced                                   : No

Text
ID                                       : 3
Format                                   : UTF-8
Codec ID                                 : S_TEXT/UTF8
Codec ID/Info                            : UTF-8 Plain Text
Duration                                 : 1 h 25 min
Bit rate                                 : 22 b/s
Count of elements                        : 567
Stream size                              : 13.9 KiB (0%)
Language                                 : English
Default                                  : Yes
Forced                                   : No
 


:ss:
(http://imagecurl.com/images/14862692883839825111_thumb.png)
(http://imagecurl.com/images/25407840798453490419_thumb.png)
(http://imagecurl.com/images/72077013219597493891_thumb.png)
(http://imagecurl.com/images/96721083594684403392_thumb.png)
(http://imagecurl.com/images/02607504230288962990_thumb.png)

:download:
http://go4up.com/dl/e3854bdcf88271
https://mirrorace.com/m/j1P4
https://www.multiup.org/download/bf5ae7d99c35d9e9f820b48cc233765f/TS17FG.mkv
https://uploadx.link/14qmm5ocxl47
http://uptobox.com/9sosz1cd8kyd
https://userscloud.com/p53pcelvhfb0
https://usersfiles.com/s84pri9et6rp