ShareSpark.net

:::: Bollywood Zone => Indian PC Videos => Topic started by: 【M】【A】【L】【I】【K】 【Z】【E】【E】 on July 28, 2018, 06:48:49 PM

Title: Dhoom 2 (2006) Bollywood Movie All Video Music Album 1080p Bluray x264 DTS-HDMA By ~MaLiK ZEE~
Post by: 【M】【A】【L】【I】【K】 【Z】【E】【E】 on July 28, 2018, 06:48:49 PM
Dhoom 2 (2006) Bollywood Movie All Video Music Album 1080p Bluray x264 DTS-HDMA By ~MaLiK ZEE~
(https://extraimage.net/images/2018/07/26/69d89461adc939f428f83ebff8a91df3.jpg)

Quote

General
Format                      : Matroska
Format version              : Version 4 / Version 2
Overall bit rate            : 15.5 Mb/s
Writing application         : Lavf57.71.100
Writing library             : Lavf57.71.100
ErrorDetectionType          : Per level 1

Video
ID                          : 1
Format                      : AVC
Format/Info                 : Advanced Video Codec
Format profile              : [email protected]
Format settings             : CABAC / 5 Ref Frames
Format settings, CABAC      : Yes
Format settings, ReFrames   : 5 frames
Codec ID                    : V_MPEG4/ISO/AVC
Bit rate                    : 14.0 Mb/s
Width                       : 1 920 pixels
Height                      : 816 pixels
Display aspect ratio        : 2.35:1
Frame rate mode             : Constant
Frame rate                  : 24.000 FPS
Color space                 : YUV
Chroma subsampling          : 4:2:0
Bit depth                   : 8 bits
Scan type                   : Progressive
Bits/(Pixel*Frame)          : 0.372
Stream size                 : 331 MiB (88%)
Writing library             : x264 core 130 r2273 b3065e6
Default                     : Yes
Forced                      : No
Color range                 : Limited
Color primaries             : BT.709
Transfer characteristics    : BT.709
Matrix coefficients         : BT.709

Audio
ID                          : 2
Format                      : DTS
Format/Info                 : Digital Theater Systems
Codec ID                    : A_DTS
Bit rate mode               : Constant
Bit rate                    : 1 509 kb/s
Channel(s)                  : 6 channels
Channel positions           : Front: L C R, Side: L R, LFE
Sampling rate               : 48.0 kHz
Frame rate                  : 93.750 FPS (512 SPF)
Bit depth                   : 16 bits
Compression mode            : Lossy
Stream size                 : 36.4 MiB (10%)
Language                    : Hindi
Default                     : Yes
Forced                      : No



 :ss:
(https://extraimage.net/images/2018/07/26/73d57a3510775b12722dab11389bd3f6.png)
(https://extraimage.net/images/2018/07/26/8934b182ac1a0d196d2c8c7dd19c441b.png)
(https://extraimage.net/images/2018/07/26/0e2251d12e3c3e950f1356888b8c5ce3.png)
(https://extraimage.net/images/2018/07/26/1ba9dfeb7988935632822a0b16889c3e.png)
(https://extraimage.net/images/2018/07/26/f7828e583b630c6e151c531aafdbe579.png)
(https://extraimage.net/images/2018/07/26/da07b0de5a9991719a20263cf863654c.png)
(https://extraimage.net/images/2018/07/26/57ce0c95b287bf0215eed1a1ef66caa6.png)
(https://extraimage.net/images/2018/07/26/f6ad32d688c18c864f04a8285701dcb0.png)
(https://extraimage.net/images/2018/07/26/24747d324787a59efbf2674fa1e31895.png)
(https://extraimage.net/images/2018/07/26/9dd61edc661d6a3ad7a401081335324a.png)
(https://extraimage.net/images/2018/07/26/669bfe3360745a5c4fcfbddc8b93ba89.png)
(https://extraimage.net/images/2018/07/26/57c6cda3663e2bbd944456e7268ba163.png)
(https://extraimage.net/images/2018/07/26/1db83e3594a1ad1f563122faec647999.png)
(https://extraimage.net/images/2018/07/26/0719bdf5bb14923080c18f54cbc2ee4c.png)
(https://extraimage.net/images/2018/07/26/b5fefd83b4058c8e3772961f922c53ab.png)
(https://extraimage.net/images/2018/07/26/ffe1065e9348a9cc3c46d0d03886922e.png)
(https://extraimage.net/images/2018/07/26/6471a05aaf987fe05fafc2e0fc7d5700.png)
(https://extraimage.net/images/2018/07/26/911ba2b84a3fb1ce52c0cf8ba7e32d7b.png)
(https://extraimage.net/images/2018/07/26/90fd9533b451d1b1206b6ac0066c8b14.png)
(https://extraimage.net/images/2018/07/26/c24cb8efa22439d4aa78ac843e530d25.png)


 :download:

Google Drive

Quote
01-Dhoom Again
https://drive.google.com/open?id=1KzsMAi3axlOXC-brKHV472PtDw0hsII4g
02-Touch Me
https://drive.google.com/open?id=1aEmIRIiU-X8px9X48tQo5i_8ScbDjI2U1
03-My Name Is Ali
https://drive.google.com/open?id=1mawPuhiXz5OheInzoHha937ucLnGIiPP8
04-Crazy Kiya Re
https://drive.google.com/open?id=1-d2OrpViST0D_rWl3Dat7JyXqOsFKdcRf
05-Dil Laga Na
https://drive.google.com/open?id=1wCaCLa4iknqkx_09pQ4UP_wAAevtAhY0o
06-Dhoom Again End Roll
https://drive.google.com/open?id=1GHLGaB1ieVTj87_NvkVtKVkMy8pNVxkVx
:download:
Zip File
Quote
https://drive.google.com/open?id=1oSiKkvQi5DUEOIIdLp4oQZ0xmbzKCY54_

(https://extraimage.net/images/2018/07/28/ce2acb54b5385475a7773693fc030f96.png)(https://extraimage.net/images/2018/07/28/c04c8cbd5b7c7ccc14c230f4d5586cba.gif)
(https://extraimage.net/images/2018/07/28/99ba6cd2cc741cbbc7452eced6a61f4b.gif)(https://extraimage.net/images/2018/07/28/9e800a4a6fb54cd69173c7fd7e533be4.png)