ShareSpark.net

:::: Bollywood Zone => Bollywood Movies (Original Rips) => Topic started by: Special26 on February 12, 2019, 05:44:00 PM

Title: Pyaar Ke Side Effect (2006) Hindi 720p Bluray x264 AC3 DD 5.1 ESubs - Sun George
Post by: Special26 on February 12, 2019, 05:44:00 PM
Pyaar Ke Side Effect (2006) Hindi 720p Bluray x264 AC3 DD 5.1 ESubs - Sun George

[img width=470 height=700]https://extraimage.net/images/2019/02/12/c8ff43bb8e3d383b5d811bb3fe1d6914.md.jpg[/img]


(https://extraimage.net/images/2019/01/05/978192eb7a348b1cba6ae76ce06a07b5.png)

Source : DTOne (Thanks) !!
Format                      : Matroska
Format version              : Version 4 / Version 2
File size                   : 1.74 GiB
Duration                    : 2 h 12 min
Overall bit rate            : 1 880 kb/s

Video
ID                          : 1
Format                      : AVC
Format/Info                 : Advanced Video Codec
Format profile              : [email protected]
Format settings             : CABAC / 5 Ref Frames
Format settings, CABAC      : Yes
Format settings, ReFrames   : 5 frames
Codec ID                    : V_MPEG4/ISO/AVC
Duration                    : 2 h 12 min
Bit rate                    : 1 500 kb/s
Width                       : 1 280 pixels
Height                      : 544 pixels
Display aspect ratio        : 2.35:1
Frame rate mode             : Constant
Frame rate                  : 24.000 FPS
Color space                 : YUV
Chroma subsampling          : 4:2:0
Bit depth                   : 8 bits
Scan type                   : Progressive
Bits/(Pixel*Frame)          : 0.090
Stream size                 : 1.38 GiB (79%)

Audio
ID                          : 2
Format                      : AC-3
Format/Info                 : Audio Coding 3
Commercial name             : Dolby Digital
Codec ID                    : A_AC3
Duration                    : 2 h 12 min
Bit rate mode               : Constant
Bit rate                    : 384 kb/s
Channel(s)                  : 6 channels
Channel layout              : L R C LFE Ls Rs
Sampling rate               : 48.0 kHz
Frame rate                  : 31.250 FPS (1536 SPF)
Bit depth                   : 16 bits
Compression mode            : Lossy
Stream size                 : 365 MiB (20%)
Title                       : Sun George
Language                    : Hindi
Service kind                : Complete Main
Default                     : Yes
Forced                      : No

Text
ID                          : 3
Format                      : PGS
Muxing mode                 : zlib
Codec ID                    : S_HDMV/PGS
Codec ID/Info               : Picture based subtitle format used on BDs/HD-DVDs
Duration                    : 2 h 10 min
Bit rate                    : 31.0 kb/s
Count of elements           : 4014
Stream size                 : 29.0 MiB (2%)
Language                    : English
Default                     : Yes
Forced                      : Yes



(https://extraimage.net/images/2019/01/05/f1881df1dd304d56d7099ed916d1c2ab.png)

[img width=800 height=340]https://extraimage.net/images/2019/02/12/be3daa244f4d57ceb826161481ed0655.jpg[/img]
[img width=800 height=340]https://extraimage.net/images/2019/02/12/5f7b0fc7009d808cd57409f9820d5b39.jpg[/img]
[img width=800 height=340]https://extraimage.net/images/2019/02/12/8c5712d46b3797f79283d7f678d9a126.jpg[/img]
[img width=800 height=340]https://extraimage.net/images/2019/02/12/c6cb2ce2e13798fce6fc354c8cf6afb4.jpg[/img]
[img width=800 height=340]https://extraimage.net/images/2019/02/12/e57c31cbd7cc2f41640c85c9c6bf4280.jpg[/img]
[img width=800 height=340]https://extraimage.net/images/2019/02/12/374cc62c68654a43d1e5977733394dcc.jpg[/img]
[img width=800 height=340]https://extraimage.net/images/2019/02/12/d9fa211469394f4e0251ff67de479680.jpg[/img]

 :download:
https://uptobox.com/hjohd8e4xtcf
https://bdupload.info/y1f99gnbgcff
https://www.file-up.org/ecehhrfpdfo8