ShareSpark.net

:::: Bollywood Zone => Indian TV Shows => Topic started by: Ʈ¡gєя™♥♫ on November 10, 2014, 02:31:48 PM

Title: Comedy Nights with Kapil, 720P Full Episode -125, November 9th, 2014
Post by: Ʈ¡gєя™♥♫ on November 10, 2014, 02:31:48 PM
Comedy Nights with Kapil, 720P Full Episode -125, November 9th, 2014

(http://www.tellychakkar.com/sites/tellychakkar.com/files/images/forum-image/2014/05/23/Happy%20Birthday%20'Comedy%20Nights%20with%20Kapil'.jpg)

 :info:
Format                                   : AVI
Format/Info                              : Audio Video Interleave
File size                                : 732 MiB
Duration                                 : 55mn 19s
Overall bit rate mode                    : Variable
Overall bit rate                         : 1 850 Kbps
Writing library                          : MPlayer

Video
ID                                       : 0
Format                                   : AVC
Format/Info                              : Advanced Video Codec
Format profile                           : [email protected]
Format settings, CABAC                   : Yes
Format settings, ReFrames                : 2 frames
Format settings, GOP                     : M=1, N=24
Codec ID                                 : H264
Duration                                 : 55mn 19s
Bit rate mode                            : Variable
Bit rate                                 : 1 461 Kbps
Maximum bit rate                         : 2 212 Kbps
Width                                    : 1 024 pixels
Height                                   : 576 pixels
Display aspect ratio                     : 16:9
Frame rate                               : 25.000 fps
Color space                              : YUV
Chroma subsampling                       : 4:2:0
Bit depth                                : 8 bits
Scan type                                : Progressive
Bits/(Pixel*Frame)                       : 0.099
Stream size                              : 578 MiB (79%)

Audio
ID                                       : 1
Format                                   : AC-3
Format/Info                              : Audio Coding 3
Mode extension                           : CM (complete main)
Format settings, Endianness              : Big
Codec ID                                 : 2000
Duration                                 : 55mn 18s
Bit rate mode                            : Constant
Bit rate                                 : 384 Kbps
Channel(s)                               : 6 channels
Channel positions                        : Front: L C R, Side: L R, LFE
Sampling rate                            : 48.0 KHz
Bit depth                                : 16 bits
Compression mode                         : Lossy
Stream size                              : 152 MiB (21%)
Alignment                                : Split accross interleaves
Interleave, duration                     : 500 ms (12.50 video frames)
Interleave, preload duration             : 500 ms



(http://i.imgur.com/14fuU2y.jpg?1)
(http://i.imgur.com/IciuVBK.jpg)
(http://i.imgur.com/Hf8NNwk.jpg)
(http://i.imgur.com/mCha4DG.jpg)

 :download:



http://uptobox.com/u77alu5pmq29
http://hugefiles.net/cvdjhlug87h8