ShareSpark.net

:::: Dubbed Zone (Dubbed English in Hindi) => English Movies Dubbed in Hindi => High Resolution Movies => Topic started by: Rάήνίјάч1234 on January 09, 2019, 11:37:14 PM

Title: Shutter Island (2010) 1080p BluRay x264 Dual Audio [Hindi DD5.1 - English DD5.1] - ESUBS ~ Ranvijay
Post by: Rάήνίјάч1234 on January 09, 2019, 11:37:14 PM
(https://extraimage.net/images/2019/01/02/5eddc57332416094f860b71bf106e027.png)

(https://extraimage.net/images/2018/05/29/93ef7f7d697804c642eb91e545931623.gif)

(https://extraimage.net/images/2019/01/03/5572d4fdcf76e7933b17ab9e2f65d3e3.png)

Shutter Island (2010) 1080p BluRay x264 Dual Audio [Hindi DD5.1 - English DD5.1] - ESUBS ~ Ranvijay

Thanks To The Punisher For Hindi Audio

Buy RDP Online

[img]https://extraimage.net/images/2018/04/07/c1f3b60db6e09ee0a82f86d837a04373.gif[/img]

Quote

Format                                   : Matroska
Format version                           : Version 4 / Version 2
File size                                : 4.93 GiB
Duration                                 : 2 h 18 min
Overall bit rate                         : 5 110 kb/s
Movie name                               : Shutter Island (2010) 1080p BluRay x264 Dual Audio [Hindi DD5.1 - English DD5.1] - ESUBS ~ Ranvijay

Video
ID                                       : 1
Format                                   : AVC
Format/Info                              : Advanced Video Codec
Duration                                 : 2 h 18 min
Bit rate                                 : 4 000 kb/s
Width                                    : 1 920 pixels
Height                                   : 816 pixels
Display aspect ratio                     : 2.35:1
Frame rate mode                          : Constant
Frame rate                               : 23.976 (24000/1001) FPS
Color space                              : YUV
Chroma subsampling                       : 4:2:0
Bit depth                                : 8 bits
Scan type                                : Progressive
Bits/(Pixel*Frame)                       : 0.106
Stream size                              : 3.86 GiB (78%)
Title                                    : ~Ranvijay~

Audio #1
ID                                       : 2
Format                                   : AC-3
Format/Info                              : Audio Coding 3
Codec ID                                 : A_AC3
Duration                                 : 2 h 18 min
Bit rate mode                            : Constant
Bit rate                                 : 640 kb/s
Channel(s)                               : 6 channels
Channel positions                        : Front: L C R, Side: L R, LFE
Sampling rate                            : 48.0 kHz
Frame rate                               : 31.250 FPS (1536 SPF)
Bit depth                                : 16 bits
Compression mode                         : Lossy
Delay relative to video                  : 1 s 540 ms
Stream size                              : 632 MiB (13%)
Title                                    : ~Ranvijay~
Language                                 : Hindi
Service kind                             : Complete Main
Default                                  : Yes
Forced                                   : Yes

Audio #2
ID                                       : 3
Format                                   : AC-3
Format/Info                              : Audio Coding 3
Codec ID                                 : A_AC3
Duration                                 : 2 h 18 min
Bit rate mode                            : Constant
Bit rate                                 : 448 kb/s
Channel(s)                               : 6 channels
Channel positions                        : Front: L C R, Side: L R, LFE
Sampling rate                            : 48.0 kHz
Frame rate                               : 31.250 FPS (1536 SPF)
Bit depth                                : 16 bits
Compression mode                         : Lossy
Stream size                              : 442 MiB (9%)
Title                                    : ~Ranvijay~
Language                                 : English
Service kind                             : Complete Main
Default                                  : No
Forced                                   : No

Text #1
ID                                       : 4
Format                                   : PGS
Muxing mode                              : zlib
Codec ID                                 : S_HDMV/PGS
Codec ID/Info                            : Picture based subtitle format used on BDs/HD-DVDs
Duration                                 : 2 h 8 min
Bit rate                                 : 37.1 kb/s
Count of elements                        : 3114
Stream size                              : 34.1 MiB (1%)
Title                                    : ~Ranvijay~
Language                                 : English
Default                                  : Yes
Forced                                   : Yes

Text #2
ID                                       : 5
Format                                   : PGS
Muxing mode                              : zlib
Codec ID                                 : S_HDMV/PGS
Codec ID/Info                            : Picture based subtitle format used on BDs/HD-DVDs
Duration                                 : 2 h 8 min
Bit rate                                 : 39.6 kb/s
Count of elements                        : 3322
Stream size                              : 36.4 MiB (1%)
Title                                    : ~Ranvijay~
Language                                 : English
Default                                  : No
Forced                                   : No

Menu
00:00:00.000                             : en:Chapter 1
00:06:33.142                             : en:Chapter 2
00:13:07.787                             : en:Chapter 3
00:20:20.928                             : en:Chapter 4
00:26:35.635                             : en:Chapter 5
00:34:54.801                             : en:Chapter 6
00:41:23.522                             : en:Chapter 7
00:48:29.573                             : en:Chapter 8
00:55:17.897                             : en:Chapter 9
01:04:02.672                             : en:Chapter 10
01:10:05.409                             : en:Chapter 11
01:16:54.401                             : en:Chapter 12
01:23:05.730                             : en:Chapter 13
01:31:37.742                             : en:Chapter 14
01:37:29.718                             : en:Chapter 15
01:45:39.082                             : en:Chapter 16
01:52:29.784                             : en:Chapter 17
01:57:39.969                             : en:Chapter 18
02:03:50.923                             : en:Chapter 19
02:10:30.989                             : en:Chapter 20

[img width=800 height=94]https://extraimage.net/images/2018/01/08/1459e2c23167a4b9382224dfec762e0e.gif[/img]

[img width=800 height=340]https://extraimage.net/images/2019/01/03/89ad2577fadc19528743fa6de54fee22.jpg[/img]
[img width=800 height=340]https://extraimage.net/images/2019/01/03/a28825b9c07654fc4d751576ea3e54e1.jpg[/img]
[img width=800 height=340]https://extraimage.net/images/2019/01/03/8ad26d8f2488252c7aa7ee3254f8a183.jpg[/img]
[img width=800 height=340]https://extraimage.net/images/2019/01/03/c45dab31bf5f67f031ae93556ba456c5.jpg[/img]
[img width=800 height=340]https://extraimage.net/images/2019/01/03/d7891669073429f47d94b97a84ba33ec.jpg[/img]
[img width=800 height=340]https://extraimage.net/images/2019/01/03/8503ae76941daa60b4972fa958eaa8fb.jpg[/img]
[img width=800 height=340]https://extraimage.net/images/2019/01/03/d7f38ba86d6097d6f5fe56e1763fcd0e.jpg[/img]
[img width=800 height=340]https://extraimage.net/images/2019/01/03/8d545062b574869ba6a588004dcc2f76.jpg[/img]
[img width=800 height=340]https://extraimage.net/images/2019/01/03/2aa45e6fc5eca6a49111e1746a5ffa33.jpg[/img]
[img width=800 height=340]https://extraimage.net/images/2019/01/03/9220a7af522646fb1890bb8c4a39e87d.jpg[/img]
[img width=800 height=340]https://extraimage.net/images/2019/01/03/04ccfb8e1d1b8881d0d06cd5333a006a.jpg[/img]
[img width=800 height=340]https://extraimage.net/images/2019/01/03/9653890957e7263b51810191be208b03.jpg[/img]
[img width=800 height=340]https://extraimage.net/images/2019/01/03/20b1d88f02ed4cbb86286096404887cb.jpg[/img]
[img width=800 height=340]https://extraimage.net/images/2019/01/03/f54a7e9ebb992ba02a8b5c333d9a83b1.jpg[/img]

:download:

Quote
https://acefile.co/f/5947431/shutter-island-2010-1080p-bluray-x264-dual-audio-hindi-dd5-1-english-dd5-1-esubs-ranvijay-mkv
https://acefile.co/f/5947432/sample-shutter-island-2010-1080p-bluray-x264-dual-audio-hindi-dd5-1-english-dd5-1-esubs-ranvijay-mkv

Are u Facing 404 Eroor From Acefile Link???
Don't Worry Just Install Any VPN and Set Location To Singapore.

Link Will Work Perfectly.
  :thank:

File Leeched & Uploaded From
(https://extraimage.net/images/2017/09/04/62fae27f763fd07090b599bd3d5064c2.jpg)
(https://extraimage.net/images/2017/03/23/ac408822fa208007a0cb5a1fb7e015de.png)
(https://extraimago.com/images/2016/10/24/a5888e337704f3547936bfd907ed4eba.png)
(http://2.bp.blogspot.com/-pyai9pasbqs/UspmWaRin0I/AAAAAAAAAP8/Rl3PDLc2VmE/s1600/6fe360de5335267cd2a98ca7b88b21966ec7ceb7_t.gif)
Don't walk as you are king, walk as you don't care who the king is....!!
Never argue with an idiot. They drag you down to their level and then beat you with experience?
Title: Re: Shutter Island (2010) 1080p BluRay x264 Dual Audio [Hindi DD5.1 - English DD5.1] - ESUBS ~ Ranvi
Post by: askfriends on January 10, 2019, 02:43:12 PM
 :thank: :rep:
Title: Re: Shutter Island (2010) 1080p BluRay x264 Dual Audio [Hindi DD5.1 - English DD5.1] - ESUBS ~ Ranvi
Post by: jami5490 on January 11, 2019, 10:03:20 AM
:bravo::thank::10on10::rep: