ShareSpark.net

:::: Bollywood Zone => Bollywood Movies (Original Rips) => Topic started by: Rάήνίјάч1234 on February 14, 2019, 01:12:10 AM

Title: Kedarnath (2018) Hindi 720p Untouched WEBHD AVC AAC ~ Ranvijay
Post by: Rάήνίјάч1234 on February 14, 2019, 01:12:10 AM
(https://extraimage.net/images/2019/02/13/54875e203558b5156356c11642c97ab7.png)

Kedarnath (2018) Hindi 720p Untouched WEBHD AVC AAC ~ Ranvijay

Format                                   : Matroska
Format version                           : Version 4 / Version 2
File size                                : 1.50 GiB
Duration                                 : 1 h 53 min
Overall bit rate                         : 1 886 kb/s
Encoded date                             : UTC 2019-02-13 19:17:33

Video
ID                                       : 1
Format                                   : AVC
Format/Info                              : Advanced Video Codec
Format profile                           : [email protected]
Format settings                          : CABAC / 4 Ref Frames
Format settings, CABAC                   : Yes
Format settings, RefFrames               : 4 frames
Format settings, GOP                     : M=4, N=50
Codec ID                                 : V_MPEG4/ISO/AVC
Duration                                 : 1 h 53 min
Bit rate                                 : 1 800 kb/s
Width                                    : 1 280 pixels
Height                                   : 720 pixels
Display aspect ratio                     : 16:9
Frame rate mode                          : Constant
Frame rate                               : 25.000 FPS
Color space                              : YUV
Chroma subsampling                       : 4:2:0
Bit depth                                : 8 bits
Scan type                                : Progressive
Bits/(Pixel*Frame)                       : 0.078
Stream size                              : 1.42 GiB (95%)
Title                                    : ~Ranvijay~

Audio
ID                                       : 2
Format                                   : AAC
Format/Info                              : Advanced Audio Codec
Format profile                           : LC
Codec ID                                 : A_AAC-2
Duration                                 : 1 h 53 min
Bit rate                                 : 96.0 kb/s
Channel(s)                               : 2 channels
Channel positions                        : Front: L R
Sampling rate                            : 48.0 kHz
Frame rate                               : 46.875 FPS (1024 SPF)
Compression mode                         : Lossy
Stream size                              : 78.7 MiB (5%)
Title                                    : ~Ranvijay~
Language                                 : Hindi
Default                                  : Yes
Forced                                   : Yes
Comment                                  : Hindi


[img]https://extraimage.net/images/2019/02/13/064ad852859e72d56b87ec2ac3975b0e.th.jpg[/img] [img]https://extraimage.net/images/2019/02/13/a225ce10fcc3d1c98b0682b54069ceb6.th.jpg[/img] [img]https://extraimage.net/images/2019/02/13/6ade3e6b8c4875db5373bef81790e75f.th.jpg[/img] [img]https://extraimage.net/images/2019/02/13/fa5453b4f4a7ba511dd726aade7d350f.th.jpg[/img] [img]https://extraimage.net/images/2019/02/13/b347e1dc95d627daae40652caf72b351.th.jpg[/img] [img]https://extraimage.net/images/2019/02/13/31737a11e177aa19b87094d67f4bbeee.th.jpg[/img] [img]https://extraimage.net/images/2019/02/13/1ca950751435670c8cff9d9979070918.th.jpg[/img] [img]https://extraimage.net/images/2019/02/13/52406a5c299a80723de79bf921b8249b.th.jpg[/img] [img]https://extraimage.net/images/2019/02/13/3e0f0b55eb2cf28dd152c802da9e0962.th.jpg[/img]

:download:

Quote
https://acefile.co/f/6697042/kedarnath-2018-720p-untouched-webhd-avc-aac-ranvijay-mkv
https://www.indishare.me/oix7g5gsegqb
https://uptobox.com/cq3jxqfu9dji
https://bdupload.info/0qyhy6akn1in
https://clicknupload.org/fe7c3yofg58m
https://userscloud.com/p5e4ft8ti4za
https://multiup.org/download/209580bb6cc3f5309711492638f734fb/Kedarnath__2018__720p_Untouched_WEBHD_AVC_AAC___Ranvijay.mkv
https://sendit.cloud/eu4wa2l22eql
https://filerio.in/e6uw97kk7wg7
http://go4up.com/dl/f6b46be0909bdf
http://jheberg.net/download/kedarnath-2018-720p-untouched-webhd-avc-aac-ranvij/

File Leeched & Uploaded From
(https://extraimage.net/images/2017/09/04/62fae27f763fd07090b599bd3d5064c2.jpg)
(https://extraimage.net/images/2017/03/23/ac408822fa208007a0cb5a1fb7e015de.png)
(https://extraimago.com/images/2016/10/24/a5888e337704f3547936bfd907ed4eba.png)
(http://2.bp.blogspot.com/-pyai9pasbqs/UspmWaRin0I/AAAAAAAAAP8/Rl3PDLc2VmE/s1600/6fe360de5335267cd2a98ca7b88b21966ec7ceb7_t.gif)
Don't walk as you are king, walk as you don't care who the king is....!!
Never argue with an idiot. They drag you down to their level and then beat you with experience?
Title: Re: Kedarnath (2018) Hindi 720p Untouched WEBHD AVC AAC ~ Ranvijay
Post by: shanabha on March 25, 2019, 01:46:34 AM
please update the link.. file not found