+ ShareSpark.net
|- Recent Posts


Recent Posts

Pages: 1 2 3 4 5 6 7 8 ... 10
41
Mission Mangal (2019) 1-3 Pre DvD Rip x264 AC3-DusIcTv






**************************************************************************************************
Mission Mangal (2019) 1-3 Pre DvD Rip x264 AC3-DusIcTv
*************************************************************************************************


General Info
Source....................: DusIcTv Ka Warehouse
Container:...........: Matroska
Durition:............: 1 h 58 min
Size:................: 1.5 GiB

Video Info
Format:..............: x264
Resolution:..........: 720 x 288
Aspect Ratio:........: 2.35:1
Frame Rate:..........: 25
Bit Rate:............: 1 390 kb/s

Audio Info
Format:..............: AC3
Bit Rate:............: 384 kb/s
Channels:............: 2 channels
Language:............: Hindi
Subtitles................: None on Source




 :ss:











Note : If you plan on sharing this release elsewhere, please give proper credits to DusIcTv. Please do not alter any of the files in this release. Thank you!


 :sample:



 :download:


43
Hindi Mp3 Songs / Asian Flava, Vol. 2 Various Artists [2006-WEBRIP-M4A]
« Last post by Apache32 on August 20, 2019, 10:29:12 AM »
Asian Flava, Vol. 2 Various Artists [2006-WEBRIP-M4A]





 :info:





 :download:

44
Hindi Mp3 Songs / Re: Dil Se [1998-MP3-VBR] - [DJLUV]
« Last post by nishujjwal29 on August 20, 2019, 10:27:17 AM »
Why your further posts, not coming brother. :wazzup:
45
Quote
The Landlord 2017 Org Untouched DD+ 2.0 224 Kbps Multi Audio By ~Hammer~
46
Quote
#Enjoy The Quality 😀
#1st ON NET Exclusive 😎
#DD+5.1 640 kbps Multi Audio
Overlord (2018) Org Untouched DD+5.1 640 kbps Multi Audio By~Hammer~
47
PREM.RATAN.DHAN.PAYO.2015.BLU-RAY.HDMA.1080P.X264.DD5.1[HINDI+TAMIL+TELUGU]-DDR






 :info:
Source: FHD Blu-Ray @ DDR 

Format                                  : Matroska
File size                                : 13.6 GiB
Duration                                : 2 h 43 min
Overall bit rate                        : 11.9 Mb/s
Movie name                              : Prem Ratan Dhan Payo

Video
ID                                      : 1
Format                                  : AVC
Format/Info                              : Advanced Video Codec
Format profile                          : [email protected]
Width                                    : 1 912 pixels
Height                                  : 816 pixels
Display aspect ratio                    : 2.35:1
Frame rate mode                          : Constant
Frame rate                              : 24.000 FPS
Bit depth                                : 8 bits
Scan type                                : Progressive
matrix coefficients                      : BT.709

Audio #1
ID                                      : 2
Format                                  : AC-3
Format/Info                              : Audio Coding 3
Commercial name                          : Dolby Digital
Codec ID                                : A_AC3
Bit rate mode                            : Constant
Bit rate                                : 640 kb/s
Channel(s)                              : 6 channels
Sampling rate                            : 48.0 kHz
Bit depth                                : 16 bits
Compression mode                        : Lossy
Language                                : Hindi


Audio #2
ID                                      : 3
Format                                  : AC-3
Format/Info                              : Audio Coding 3
Commercial name                          : Dolby Digital
Codec ID                                : A_AC3
Bit rate mode                            : Constant
Bit rate                                : 640 kb/s
Channel(s)                              : 6 channels
Sampling rate                            : 48.0 kHz
Bit depth                                : 16 bits
Compression mode                        : Lossy
Language                                : Tamil

Audio #3
ID                                      : 4
Format                                  : AC-3
Format/Info                              : Audio Coding 3
Commercial name                          : Dolby Digital
Codec ID                                : A_AC3
Bit rate mode                            : Constant
Bit rate                                : 640 kb/s
Channel(s)                              : 6 channels
Sampling rate                            : 48.0 kHz
Bit depth                                : 16 bits
Compression mode                        : Lossy
Language                                : Telugu
Text
ID                                      : 5
Format                                  : PGS
Muxing mode                              : zlib
Codec ID                                : S_HDMV/PGS
Codec ID/Info : Picture based subtitle format used on BDs/HD-DVDs
Language                                : English




 :ss:





Source Note : THE BLURAY DID NOT HAVE LOSSLESS AUDIO (DTS OR DOLBY)
 :download:

48
Hum Tumhare Hain Sanam (2002) Hindi 1080p WebHD AVC {Music Video} ESuBS By-DusIcTv






 :info:

Format                         : Matroska
Format version                 : Version 4
File size                      : 2.75 GB
Overall bit rate               : 12.1 Mb/s
Writing application  : mkvmerge v32.0.0 ('Astral Progressions') 32-bit
Writing library : libebml v1.3.7 + libmatroska v1.5.0


Video
ID                             : 1
Format                         : AVC
Format/Info                    : Advanced Video Codec
Format profile                 : [email protected]
Format settings                : CABAC / 4 Ref Frames
Format settings, CABAC         : Yes
Format settings, ReFrames      : 4 frames
Codec ID                       : V_MPEG4/ISO/AVC
Bit rate                       : 11.9 Mb/s
Width                          : 1 920 pixels
Height                         : 816 pixels
Display aspect ratio           : 2.35:1
Original display aspect ratio  : 2.35:1
Frame rate mode                : Constant
Frame rate                     : 25.000 FPS
Color space                    : YUV
Chroma subsampling             : 4:2:0
Bit depth                      : 8 bits
Scan type                      : Progressive
Bits/(Pixel*Frame)             : 0.304
Stream size                    : 492 MiB (98%)
Title                          : Dusictv
Default                        : Yes
Forced                         : No


Audio
ID                             : 2
Format                         : AAC LC
Format/Info                    : Advanced Audio Codec
Codec ID                       : A_AAC-2
Bit rate                       : 192 kb/s
Channel(s)                     : 2 channels
Channel layout                 : L R
Sampling rate                  : 48.0 kHz
Frame rate                     : 46.875 FPS (1024 SPF)
Compression mode               : Lossy
Delay relative to video        : 19 ms
Stream size                    : 7.94 MiB (2%)
Title                          : Dusictv
Default                        : Yes
Forced                         : No




 :ss:














 :download:

49
Hum Dil De Chuke Sanam (1999) Hindi 1080p WebHD AVC DD 5.1 {Music Video} ESuBS By-DusIcTv






 :info:
Format                         : Matroska
Format version                 : Version 4
File size                      : 3.91 GB
Overall bit rate               : 12.5 Mb/s
Writing application : mkvmerge v32.0.0 ('Astral Progressions') 32-bit
Writing library  : libebml v1.3.7 + libmatroska v1.5.0


Video
ID                             : 1
Format                         : AVC
Format/Info                    : Advanced Video Codec
Format profile                 : [email protected]
Format settings                : CABAC / 4 Ref Frames
Format settings, CABAC         : Yes
Format settings, ReFrames      : 4 frames
Codec ID                       : V_MPEG4/ISO/AVC
Bit rate                       : 12.0 Mb/s
Width                          : 1 920 pixels
Height                         : 816 pixels
Display aspect ratio           : 2.35:1
Frame rate mode                : Constant
Frame rate                     : 24.000 FPS
Color space                    : YUV
Chroma subsampling             : 4:2:0
Bit depth                      : 8 bits
Scan type                      : Progressive
Bits/(Pixel*Frame)             : 0.320
Stream size                    : 434 MiB (96%)
Title                          : Dusictv
Default                        : Yes
Forced                         : No


Audio
ID                             : 2
Format                         : AC-3
Format/Info                    : Audio Coding 3
Commercial name                : Dolby Digital
Codec ID                       : A_AC3
Bit rate mode                  : Constant
Bit rate                       : 448 kb/s
Channel(s)                     : 6 channels
Channel layout                 : L R C LFE Ls Rs
Sampling rate                  : 48.0 kHz
Frame rate                     : 31.250 FPS (1536 SPF)
Bit depth                      : 16 bits
Compression mode               : Lossy
Delay relative to video        : 16 ms
Stream size                    : 16.1 MiB (4%)
Title                          : Dusictv
Service kind                   : Complete Main
Default                        : Yes
Forced                         : No




 :ss:


















 :download:

50
Hindi Mp3 Songs / Re: Dastak [WAV - 1996] - (Saregama) ~ Preamp
« Last post by Preamp on August 20, 2019, 09:55:40 AM »
Link Updated  :rep:

Pages: 1 2 3 4 5 6 7 8 ... 10



Back to top