+ ShareSpark.net »  :::: Bollywood Zone » Regional Movies » Punjabi Movies
|-  Jugni (2016) 720p x264 AAC 5.1 MSubs - DDR


10% SBI and 10% Discount

Jugni (2016) 720p x264 AAC 5.1 MSubs - DDR

0 Members and 1 Guest are viewing this topic.

August 30, 2016, 08:03:56 AM
  • *****************
  • Head Admin
  • Legend Member
  • *****
  • Topic Author
  • Thank You: 7049
  • Reputation: 3112
  • Activity:
    41%
  • Country: in
  • Posts: 19285
  • Topics: 11150
  • Join Date: Mar 2012
  • The Time Is Now......




** JUGNI **

** 2016**

** 720p / x264 / AAC 5.1 **

** English & French Subtitle(s) **



File size : 2.02 GiB
Duration : 1 h 47 min
Overall bit rate : 2 694 kb/s

Video
Format : AVC
Format/Info : Advanced Video Codec
Format profile : [email protected]
Format settings, CABAC : Yes
Format settings, ReFrames : 12 frames
Codec ID : V_MPEG4/ISO/AVC
Duration : 1 h 47 min
Bit rate : 2 500 kb/s
Width : 1 280 pixels
Height : 544 pixels
Display aspect ratio : 2.35:1
Frame rate mode : Constant
Frame rate : 24.000 FPS
Color space : YUV
Chroma subsampling : 4:2:0
Bit depth : 8 bits
Scan type : Progressive
Bits/(Pixel*Frame) : 0.150
Stream size : 1.88 GiB (93%)
Default : Yes
Forced : No
Color range : Limited
Color primaries : BT.709

Audio
Format : AAC
Format/Info : Advanced Audio Codec
Format profile : LC
Codec ID : A_AAC
Duration : 1 h 47 min
Bit rate : 192 kb/s
Channel(s) : 6 channels
Channel positions : Front: L C R, Side: L R, LFE
Sampling rate : 48.0 kHz
Frame rate : 46.875 FPS (1024 spf)
Compression mode : Lossy
Delay relative to video : 9 ms
Stream size : 147 MiB (7%)
Language : Hindi
Default : Yes
Forced : No

Chapters = YES

[ A DDR Exclusive Encode !!! ]































Share this topic on FacebookShare this topic on GoogleShare this topic on MySpaceShare this topic on TwitterShare this topic on Yahoo

« Last Edit: August 30, 2016, 08:04:27 AM by -Ð@Rk.ÐèVi£- »



Tags:
 

Related Topics

  Subject / Started by Replies Last post
0 Replies
836 Views
Last post January 03, 2016, 02:56:50 AM
by -Ð@Rk.ÐèVi£-
0 Replies
1129 Views
Last post June 03, 2016, 11:39:24 AM
by sagarsingha
0 Replies
978 Views
Last post June 03, 2016, 11:48:37 AM
by -Ð@Rk.ÐèVi£-
0 Replies
745 Views
Last post August 30, 2016, 08:07:33 AM
by -Ð@Rk.ÐèVi£-
0 Replies
970 Views
Last post August 30, 2016, 08:14:43 AM
by -Ð@Rk.ÐèVi£-




Back to top