+ ShareSpark.net »  :::: Dubbed Zone (Dubbed English in Hindi) » TV Shows (Dubbed in Hindi)
|- Heroes (2006) Season 01 Episode 18 1080p x264 BluRay [Dual Audio] [Hindi Org DD 2.0 - Eng] -


Heroes (2006) Season 01 Episode 18 1080p x264 BluRay [Dual Audio] [Hindi Org DD 2.0 - Eng] -

0 Members and 1 Guest are viewing this topic.

September 13, 2016, 10:19:54 PM
  • *****************
  • Head Admin
  • Legend Member
  • *****
  • Topic Author
  • Thank You: 7091
  • Reputation: 3125
  • Activity:
    13.8%
  • Country: in
  • Posts: 19323
  • Topics: 11171
  • Join Date: Mar 2012
  • The Time Is Now......


Heroes (2006) Season 01 Episode 18 S01E18 1080p x264 BluRay [Dual Audio] [Hindi Org DD 2.0 - Eng] - monu987
Format : Matroska
Format version : Version 4 / Version 2
File size : 911 MiB
Duration : 43mn 28s
Overall bit rate : 2 931 Kbps
Movie name : Heroes (2006) Season 01 Episode 18 S01E18 1080p - monu987
Encoded date : UTC 2016-09-08 19:43:45
Writing application : mkvmerge v7.9.0 ('Birds') 64bit
Writing library : libebml v1.3.1 + libmatroska v1.4.2
DURATION : 00:43:28.224000000
NUMBER_OF_FRAMES : 81507
NUMBER_OF_BYTES : 62597376
_STATISTICS_WRITING_APP : mkvmerge v7.9.0 ('Birds') 64bit
_STATISTICS_WRITING_DATE_UTC : 2016-09-08 19:43:45
_STATISTICS_TAGS : BPS DURATION NUMBER_OF_FRAMES NUMBER_OF_BYTES

Video
ID : 1
Format : AVC
Format/Info : Advanced Video Codec
Format profile : [email protected]
Format settings, CABAC : Yes
Format settings, ReFrames : 3 frames
Codec ID : V_MPEG4/ISO/AVC
Duration : 43mn 28s
Bit rate : 2 500 Kbps
Width : 1 920 pixels
Height : 1 072 pixels
Display aspect ratio : 16:9
Frame rate mode : Constant
Frame rate : 23.976 fps
Color space : YUV
Chroma subsampling : 4:2:0
Bit depth : 8 bits
Scan type : Progressive
Bits/(Pixel*Frame) : 0.051
Stream size : 764 MiB (84%)
Title : monu987
Writing library : x264 core 142 r2431 ac76440
Default : Yes
Forced : Yes
Color range : Limited
Color primaries : Generic film
Transfer characteristics : BT.709
Matrix coefficients : BT.709
DURATION : 00:43:28.231000000
NUMBER_OF_FRAMES : 62535
NUMBER_OF_BYTES : 815137967
_STATISTICS_WRITING_APP : mkvmerge v7.9.0 ('Birds') 64bit
_STATISTICS_WRITING_DATE_UTC : 2016-09-08 19:43:45
_STATISTICS_TAGS : BPS DURATION NUMBER_OF_FRAMES NUMBER_OF_BYTES

Audio #1
ID : 2
Format : AC-3
Format/Info : Audio Coding 3
Mode extension : CM (complete main)
Format settings, Endianness : Big
Codec ID : A_AC3
Duration : 43mn 28s
Bit rate mode : Constant
Bit rate : 224 Kbps
Channel(s) : 2 channels
Channel positions : Front: L R
Sampling rate : 48.0 KHz
Compression mode : Lossy
Stream size : 69.6 MiB (8%)
Title : monu987
Language : Hindi
Default : Yes
Forced : Yes

Audio #2
ID : 3
Format : AC-3
Format/Info : Audio Coding 3
Mode extension : CM (complete main)
Format settings, Endianness : Big
Codec ID : A_AC3
Duration : 43mn 28s
Bit rate mode : Constant
Bit rate : 192 Kbps
Channel(s) : 6 channels
Channel positions : Front: L C R, Side: L R, LFE
Sampling rate : 48.0 KHz
Compression mode : Lossy
Stream size : 59.7 MiB (7%)
Title : monu987
Language : English
Default : No
Forced : No
DURATION : 00:42:30.631000000
NUMBER_OF_FRAMES : 1226
NUMBER_OF_BYTES : 4006010
_STATISTICS_WRITING_APP : mkvmerge v7.9.0 ('Birds') 64bit
_STATISTICS_WRITING_DATE_UTC : 2016-09-08 19:43:45
_STATISTICS_TAGS : BPS DURATION NUMBER_OF_FRAMES NUMBER_OF_BYTES

Text
ID : 4
Format : PGS
Muxing mode : zlib
Codec ID : S_HDMV/PGS
Codec ID/Info : Picture based subtitle format used on BDs/HD-DVDs
Title : monu987
Language : English
Default : Yes
Forced : Yes

Menu
00:00:00.000 : :Chapter 1
00:06:55.181 : :Chapter 2
00:24:57.596 : :Chapter 3
00:35:08.873 : :Chapter 4
























Share this topic on FacebookShare this topic on GoogleShare this topic on MySpaceShare this topic on TwitterShare this topic on Yahoo




Tags:
 

Related Topics





Back to top