+ ShareSpark.net »  :::: Dubbed Zone (Dubbed English in Hindi) » English Movies Dubbed in Hindi
|- Beverly Hills Cop TRILOGY .720p.[Dual Audio] [Hindi+English].by [email protected]


Beverly Hills Cop TRILOGY .720p.[Dual Audio] [Hindi+English].by [email protected]

0 Members and 1 Guest are viewing this topic.

November 19, 2012, 11:15:55 AM
  • Admin (Inactive)
  • Legend Member
  • ****
  • Topic Author
  • Thank You: 1346
  • Reputation: 711
  • Activity:
    0%
  • Posts: 2474
  • Topics: 1525
  • Join Date: Jun 2012
  • ShareSpark Member
BEVERLY HILLS COP (1984).720p Blu-ray[Dual Audio].[Hindi-English].by [email protected] [ExD Exclusive]








Rip Information

Format                                   : Matroska
Format version                           : Version 2
File size                                : 788 MiB
Duration                                 : 1h 45mn
Overall bit rate                         : 1 049 Kbps
Movie name                               : BEVERLY HILLS COP (1984).720p Blu-ray[Dual Audio].[Hindi-English].by [email protected]

[ExD Exclusive]
Encoded date                             : UTC 2012-11-16 18:17:31

Video

Codec ID                                 : V_MPEG4/ISO/AVC
Duration                                 : 1h 45mn
Nominal bit rate                         : 863 Kbps
Width                                    : 1 280 pixels
Height                                   : 720 pixels
Display aspect ratio                     : 16:9
Frame rate mode                          : Constant
Frame rate                               : 23.976 fps
Color space                              : YUV
Chroma subsampling                       : 4:2:0
Bit depth                                : 8 bits
Scan type                                : Progressive
Bits/(Pixel*Frame)                       : 0.039
Title                                    : [email protected]
Writing library                          : x264 core 112


Audio 1

Codec ID                                 : A_AAC
Duration                                 : 1h 45mn
Channel(s)                               : 2 channels
Channel positions                        : Front: L R
Sampling rate                            : 48.0 KHz
Compression mode                         : Lossy
Title                                    : [email protected]
Language                                 : English


Audio 2

Codec ID                                 : A_AC3
Duration                                 : 1h 45mn
Bit rate mode                            : Constant
Bit rate                                 : 128 Kbps
Channel(s)                               : 2 channels
Channel positions                        : Front: L R
Sampling rate                            : 44.1 KHz
Bit depth                                : 16 bits
Compression mode                         : Lossy
Delay relative to video                  : 3s 300ms
Stream size                              : 96.2 MiB (12%)
Title                                    : [email protected]
Language                                 : Hindi















































Share this topic on FacebookShare this topic on GoogleShare this topic on MySpaceShare this topic on TwitterShare this topic on Yahoo

« Last Edit: April 12, 2013, 05:26:41 PM by Blooodred »


Thanks given by:


November 20, 2012, 01:14:21 AM
Reply #1
  • Admin (Inactive)
  • Legend Member
  • ****
  • Topic Author
  • Thank You: 1346
  • Reputation: 711
  • Activity:
    0%
  • Posts: 2474
  • Topics: 1525
  • Join Date: Jun 2012
  • ShareSpark Member
Beverly Hills Cop 2 [1987].720p.[Dual Audio] [Hindi+English].by [email protected] [ExD Exclusive]
=First On Net==











Rip Information

Format                                   : Matroska
Format version                           : Version 2
File size                                : 891 MiB
Duration                                 : 1h 42mn
Overall bit rate                         : 1 209 Kbps
Movie name                               : Beverly Hills Cop 2 [1987].720p.[Dual Audio] [Hindi+English].by [email protected] [ExD

Exclusive]


Video

Codec ID                                 : V_MPEG4/ISO/AVC
Duration                                 : 1h 42mn
Bit rate                                 : 954 Kbps
Width                                    : 1 280 pixels
Height                                   : 544 pixels
Display aspect ratio                     : 2.35:1
Frame rate mode                          : Constant
Frame rate                               : 23.976 fps
Color space                              : YUV
Chroma subsampling                       : 4:2:0
Bit depth                                : 8 bits
Scan type                                : Progressive
Bits/(Pixel*Frame)                       : 0.057
Stream size                              : 684 MiB (77%)
Title                                    : [email protected]
Writing library                          : x264 core 125 r2200 999b753


Audio 1

Codec ID                                 : A_AC3
Duration                                 : 1h 42mn
Bit rate mode                            : Constant
Bit rate                                 : 128 Kbps
Channel(s)                               : 2 channels
Channel positions                        : Front: L R
Sampling rate                            : 44.1 KHz
Bit depth                                : 16 bits
Compression mode                         : Lossy
Delay relative to video                  : 10ms
Stream size                              : 94.3 MiB (11%)
Title                                    : [email protected]
Language                                 : Hindi


Audio 2

Codec ID                                 : A_AC3
Duration                                 : 1h 42mn
Bit rate mode                            : Constant
Bit rate                                 : 128 Kbps
Channel(s)                               : 6 channels
Channel positions                        : Front: L C R, Side: L R, LFE
Sampling rate                            : 48.0 KHz
Bit depth                                : 16 bits
Compression mode                         : Lossy
Stream size                              : 94.3 MiB (11%)
Title                                    : [email protected]
Language                                 : English




















































« Last Edit: April 12, 2013, 05:42:40 PM by Blooodred »

November 20, 2012, 01:15:12 AM
Reply #2
  • Admin (Inactive)
  • Legend Member
  • ****
  • Topic Author
  • Thank You: 1346
  • Reputation: 711
  • Activity:
    0%
  • Posts: 2474
  • Topics: 1525
  • Join Date: Jun 2012
  • ShareSpark Member
Beverly Hills Cop 3 [1994].720p.[Dual Audio] [Hindi+English].by [email protected] [ExD Exclusive]










Rip Information

Format                                   : Matroska
Format version                           : Version 2
File size                                : 892 MiB
Duration                                 : 1h 44mn
Overall bit rate                         : 1 199 Kbps
Movie name                               : Beverly Hills Cop 3 [1994].720p.[Dual Audio] [Hindi+English].by [email protected] [ExD

Exclusive]


Video

Codec ID                                 : V_MPEG4/ISO/AVC
Duration                                 : 1h 44mn
Bit rate                                 : 942 Kbps
Width                                    : 1 280 pixels
Height                                   : 720 pixels
Display aspect ratio                     : 16:9
Frame rate mode                          : Constant
Frame rate                               : 23.976 fps
Color space                              : YUV
Chroma subsampling                       : 4:2:0
Bit depth                                : 8 bits
Scan type                                : Progressive
Bits/(Pixel*Frame)                       : 0.043
Stream size                              : 684 MiB (77%)
Title                                    : [email protected]
Writing library                          : x264 core 125 r2200 999b753


Audio 1

Codec ID                                 : A_AC3
Duration                                 : 1h 44mn
Bit rate mode                            : Constant
Bit rate                                 : 128 Kbps
Channel(s)                               : 6 channels
Channel positions                        : Front: L C R, Side: L R, LFE
Sampling rate                            : 48.0 KHz
Bit depth                                : 16 bits
Compression mode                         : Lossy
Stream size                              : 95.3 MiB (11%)
Title                                    : [email protected]
Language                                 : English


Audio 2

Codec ID                                 : A_AC3
Duration                                 : 1h 44mn
Bit rate mode                            : Constant
Bit rate                                 : 128 Kbps
Channel(s)                               : 2 channels
Channel positions                        : Front: L R
Sampling rate                            : 44.1 KHz
Bit depth                                : 16 bits
Compression mode                         : Lossy
Delay relative to video                  : 2ms
Stream size                              : 95.3 MiB (11%)
Title                                    : [email protected]
Language                                 : Hindi


















































« Last Edit: April 29, 2013, 07:44:23 PM by Blooodred »

November 21, 2012, 01:22:45 PM
Reply #3
  • Global Mod (Inactive)
  • Legend Member
  • *****
  • Thank You: 1150
  • Reputation: 1168
  • Activity:
    0%
  • Country: in
  • Posts: 1606
  • Topics: 268
  • Join Date: Aug 2012
  • Dubbed Hindi Audio Expert
On Vacation, Will Be Back on 15th Jan :)

November 21, 2012, 03:32:16 PM
Reply #4
  • Devoted Member
  • **
  • Thank You: 0
  • Reputation: 4
  • Activity:
    0%
  • Country: in
  • Posts: 169
  • Topics: 4
  • Join Date: May 2012
  • ShareSpark Member

November 21, 2012, 05:41:26 PM
Reply #5
  • Elite Mod (Inactive)
  • Special Member
  • ****
  • Thank You: 46
  • Reputation: 74
  • Activity:
    0%
  • Country: in
  • Posts: 709
  • Topics: 52
  • Join Date: Mar 2012
  • ShareSpark Member
nice yaar +3 repu
bro ishe active rakhna ab main agle saal hi download kar paunga

January 28, 2013, 11:20:07 AM
Reply #6
  • Begginer
  • **
  • Thank You: 0
  • Reputation: 0
  • Activity:
    0%
  • Posts: 91
  • Topics: 0
  • Join Date: Feb 2012
  • ShareSpark Member

January 28, 2013, 05:31:56 PM
Reply #7
  • Semi Newbie
  • **
  • Thank You: 0
  • Reputation: 0
  • Activity:
    0%
  • Posts: 33
  • Topics: 0
  • Join Date: Jul 2012
  • ShareSpark Member
if u see this then please reupload all links are not working or may be u not please just reply it....................................

January 28, 2013, 06:07:57 PM
Reply #8
  • Semi Newbie
  • **
  • Thank You: 46
  • Reputation: 21
  • Activity:
    0%
  • Posts: 95
  • Topics: 30
  • Join Date: Nov 2012
  • ShareSpark Member

January 28, 2013, 07:20:15 PM
Reply #9
  • Devoted Member
  • **
  • Thank You: 0
  • Reputation: 0
  • Activity:
    0.2%
  • Posts: 134
  • Topics: 0
  • Join Date: Aug 2012
  • ShareSpark Member

January 29, 2013, 02:51:12 PM
Reply #10
  • Special Member
  • ****
  • Thank You: 1
  • Reputation: 0
  • Activity:
    2.8%
  • Posts: 814
  • Topics: 2
  • Join Date: Apr 2012
  • ShareSpark Member

January 30, 2013, 12:38:10 PM
Reply #11
  • Begginer
  • **
  • Thank You: 0
  • Reputation: 0
  • Activity:
    0%
  • Posts: 91
  • Topics: 0
  • Join Date: Feb 2012
  • ShareSpark Member

February 02, 2013, 02:57:03 PM
Reply #12
  • Begginer
  • **
  • Thank You: 0
  • Reputation: 0
  • Activity:
    0%
  • Posts: 91
  • Topics: 0
  • Join Date: Feb 2012
  • ShareSpark Member
Rapidshare link work but message show download denied by uploader plz help :(.
« Last Edit: February 04, 2013, 11:11:12 AM by waphrishi »

February 08, 2013, 11:31:00 AM
Reply #13
  • Begginer
  • **
  • Thank You: 0
  • Reputation: 0
  • Activity:
    0%
  • Posts: 91
  • Topics: 0
  • Join Date: Feb 2012
  • ShareSpark Member

February 12, 2013, 02:00:46 PM
Reply #14
  • Begginer
  • **
  • Thank You: 0
  • Reputation: 0
  • Activity:
    0%
  • Posts: 91
  • Topics: 0
  • Join Date: Feb 2012
  • ShareSpark Member

February 28, 2013, 01:45:07 PM
Reply #15
  • Begginer
  • **
  • Thank You: 0
  • Reputation: 0
  • Activity:
    0%
  • Posts: 91
  • Topics: 0
  • Join Date: Feb 2012
  • ShareSpark Member

February 28, 2013, 06:47:01 PM
Reply #16
  • Devoted Member
  • **
  • Thank You: 0
  • Reputation: 0
  • Activity:
    0.2%
  • Posts: 134
  • Topics: 0
  • Join Date: Aug 2012
  • ShareSpark Member

March 31, 2013, 05:04:52 AM
Reply #17
  • Begginer
  • **
  • Thank You: 0
  • Reputation: 0
  • Activity:
    0%
  • Posts: 91
  • Topics: 0
  • Join Date: Feb 2012
  • ShareSpark Member

April 12, 2013, 05:44:24 PM
Reply #18
  • Admin (Inactive)
  • Legend Member
  • ****
  • Topic Author
  • Thank You: 1346
  • Reputation: 711
  • Activity:
    0%
  • Posts: 2474
  • Topics: 1525
  • Join Date: Jun 2012
  • ShareSpark Member

April 12, 2013, 08:19:26 PM
Reply #19
  • Begginer
  • **
  • Thank You: 3
  • Reputation: 7
  • Activity:
    0%
  • Posts: 65
  • Topics: 2
  • Join Date: Jan 2013
  • ShareSpark Member

Tags:
 

Related Topics





Back to top