+ ShareSpark.net »  :::: Hollywood Zone » Hollywood Movies (Original Rips)
|- xXx Return Of Xander Cage 2017 KORSUB HDRip XviD MP3 [STUTTERSHIT] 1.34GB


HDFC 10% Off

xXx Return Of Xander Cage 2017 KORSUB HDRip XviD MP3 [STUTTERSHIT] 1.34GB

0 Members and 1 Guest are viewing this topic.

March 10, 2017, 02:47:06 PM
  • Elite Moderator
  • Legend Member
  • ****
  • Topic Author
  • Thank You: 2007
  • Reputation: 289
  • Activity:
    0%
  • Country: in
  • Posts: 3724
  • Topics: 2854
  • Join Date: Sep 2016
  • (: EnJOy D LiFe :)
:title:
xXx Return Of Xander Cage 2017 KORSUB HDRip XviD MP3 [STUTTERSHIT]



 :info:

Video
ID                                       : 0
Format                                   : MPEG-4 Visual
Format profile                           : [email protected]
Format settings, BVOP                    : No
Format settings, QPel                    : No
Format settings, GMC                     : No warppoints
Format settings, Matrix                  : Default (H.263)
Codec ID                                 : XVID
Codec ID/Hint                            : XviD
Duration                                 : 1h 46mn
Bit rate                                 : 1 600 Kbps
Width                                    : 720 pixels
Height                                   : 304 pixels
Display aspect ratio                     : 2.40:1
Frame rate                               : 29.970 fps
Color space                              : YUV
Chroma subsampling                       : 4:2:0
Bit depth                                : 8 bits
Scan type                                : Progressive
Compression mode                         : Lossy
Bits/(Pixel*Frame)                       : 0.244
Stream size                              : 1.19 GiB (89%)
Writing library                          : Lavc57.16.101

Audio
ID                                       : 1
Format                                   : MPEG Audio
Format version                           : Version 1
Format profile                           : Layer 3
Mode                                     : Joint stereo
Mode extension                           : MS Stereo
Codec ID                                 : 55
Codec ID/Hint                            : MP3
Duration                                 : 1h 46mn
Bit rate mode                            : Constant
Bit rate                                 : 192 Kbps
Channel(s)                               : 2 channels
Sampling rate                            : 48.0 KHz
Compression mode                         : Lossy
Stream size                              : 146 MiB (11%)
Alignment                                : Aligned on interleaves
Interleave, duration                     : 24 ms (0.72 video frame)
Interleave, preload duration             : 504 ms
Writing library                          : LAME


 :ss:







 :download:












Share this topic on FacebookShare this topic on GoogleShare this topic on MySpaceShare this topic on TwitterShare this topic on Yahoo



* BUSY *


Tags:
 

Related Topics





Back to top