+ ShareSpark.net »  :::: Bollywood Zone » Bollywood Movies (Pre Releases)
|- Naam Shabana (2017) Pdvdrip ~Ranvijay~ 840 MB [With Google Drive Link]


Naam Shabana (2017) Pdvdrip ~Ranvijay~ 840 MB [With Google Drive Link]

0 Members and 1 Guest are viewing this topic.

March 31, 2017, 07:43:22 PM
  • Global Moderator
  • Legend Member
  • *****
  • Topic Author
  • Thank You: 13833
  • Reputation: 2817
  • Activity:
    76.6%
  • Country: in
  • Posts: 6107
  • Topics: 4994
  • Join Date: Jan 2014
  • ıllıllı ѕмoĸιng ιѕ good ғor нealтн ıllıllı :)


Naam Shabana (2017) Pdvdrip ~Ranvijay~

Quote
Format                                   : Matroska
Format version                           : Version 4 / Version 2
File size                                : 841 MiB
Duration                                 : 2 h 43 min
Overall bit rate mode                    : Variable
Overall bit rate                         : 721 kb/s
Movie name                               : Ranvijay1234
Encoded date                             : UTC 2017-03-31 14:06:59
Writing application                      : mkvmerge v9.8.0 ('Kuglblids') 32bit
Writing library                          : libebml v1.3.4 + libmatroska v1.4.5

Video
ID                                       : 1
Format                                   : MPEG Video
Format version                           : Version 2
Format profile                           : [email protected]
Format settings, BVOP                    : Yes
Format settings, Matrix                  : Custom
Format settings, GOP                     : Variable
Codec ID                                 : V_MPEG2
Codec ID/Info                            : MPEG 1 or 2 Video
Duration                                 : 2 h 43 min
Bit rate mode                            : Variable
Bit rate                                 : 623 kb/s
Width                                    : 352 pixels
Height                                   : 288 pixels
Display aspect ratio                     : 4:3
Frame rate mode                          : Constant
Frame rate                               : 25.000 FPS
Standard                                 : NTSC
Color space                              : YUV
Chroma subsampling                       : 4:2:0
Bit depth                                : 8 bits
Scan type                                : Progressive
Compression mode                         : Lossy
Bits/(Pixel*Frame)                       : 0.246
Time code of first frame                 : 00:00:00:00
Time code source                         : Group of pictures header
Stream size                              : 726 MiB (86%)
Title                                    : Ranvijay1234
Writing library                          : TMPGEnc Video Mastering Works 5 Version. 5.0.6.38
Default                                  : Yes
Forced                                   : No
Color primaries                          : BT.601 PAL
Transfer characteristics                 : BT.470 System B, BT.470 System G
Matrix coefficients                      : BT.601

Audio
ID                                       : 2
Format                                   : MPEG Audio
Format version                           : Version 1
Format profile                           : Layer 2
Codec ID                                 : A_MPEG/L2
Codec ID/Hint                            : MP2
Duration                                 : 2 h 43 min
Bit rate mode                            : Constant
Bit rate                                 : 96.0 kb/s
Channel(s)                               : 2 channels
Sampling rate                            : 48.0 kHz
Frame rate                               : 41.667 FPS (1152 spf)
Compression mode                         : Lossy
Stream size                              : 112 MiB (13%)
Title                                    : Ranvijay1234
Default                                  : Yes
Forced                                   : No








Quote








Don't walk as you are king, walk as you don't care who the king is....!!
Never argue with an idiot. They drag you down to their level and then beat you with experience?

Share this topic on FacebookShare this topic on GoogleShare this topic on MySpaceShare this topic on TwitterShare this topic on Yahoo

« Last Edit: March 31, 2017, 07:45:01 PM by Rάήνίјάч1234 »



Don't walk as you are king, walk as you don't care who the king is....!!

Thanks given by:


March 31, 2017, 07:47:49 PM
Reply #1
  • Hot Member
  • ***
  • Thank You: 0
  • Reputation: 7
  • Activity:
    0%
  • Country: in
  • Posts: 635
  • Topics: 0
  • Join Date: Dec 2016
  • ShareSpark Member

Tags:
 

Related Topics





Back to top