+ ShareSpark.net »  :::: Dubbed Zone (Dubbed English in Hindi) » TV Shows (Dubbed in Hindi)
|- Ben.10.Omniverse.S01E04 Trouble Helix.720p Dual Audio Hin-Eng By Team ExD


Ben.10.Omniverse.S01E04 Trouble Helix.720p Dual Audio Hin-Eng By Team ExD

0 Members and 1 Guest are viewing this topic.

December 08, 2012, 09:50:05 PM
  • Man Of Steel <SuPeRMaN>
  • Junior Mod (Inactive)
  • Special Member
  • ***
  • Topic Author
  • Thank You: 437
  • Reputation: 292
  • Activity:
    0%
  • Posts: 692
  • Topics: 247
  • Join Date: Jul 2012





Code: [Select]
General
Unique ID                                : 310120612221465659075886961026034897219 (0xE94F0EAE27CFECAD34ADF79F6F991143)
Complete name                            : F:\DOWNLOAD MOVIES\[ www.Speed.Cd ] - Ben.10.Omniverse.S01E01.The.More.Things.Change.Pt.1.720p.WEB-DL.AAC2.0.H.264-iT00NZ\Ben.10.Omniverse.S01E04 Trouble Helix.720p Dual Audio Hin-Eng By Team ExDRS.mkv
Format                                   : Matroska
File size                                : 122 MiB
Duration                                 : 22mn 36s
Overall bit rate                         : 752 Kbps
Writing application                      : AVI-Mux GUI 1.17.7, Aug  8 2006  20:59:17
Writing library                          : matroska muxer by Alexander Noe, build date Aug  8 2006

Video
ID                                       : 1
Format                                   : AVC
Format/Info                              : Advanced Video Codec
Codec ID                                 : V_MPEG4/ISO/AVC
Duration                                 : 22mn 36s
Width                                    : 1 280 pixels
Height                                   : 720 pixels
Display aspect ratio                     : 16:9
Frame rate                               : 23.976 fps
Default                                  : Yes
Forced                                   : No

Audio #1
ID                                       : 2
Format                                   : 1013
Codec ID                                 : 1013
Duration                                 : 22mn 36s
Bit rate                                 : 1 049 Kbps
Channel(s)                               : 2 channels
Sampling rate                            : 24.0 KHz
Bit depth                                : 268 bits
Stream size                              : 170 MiB
Title                                    : English Audio By FARAZ
Language                                 : English
Default                                  : No
Forced                                   : No

Audio #2
ID                                       : 3
Format                                   : MPEG Audio
Format version                           : Version 1
Format profile                           : Layer 2
Codec ID                                 : 50
Duration                                 : 22mn 36s
Bit rate mode                            : Constant
Bit rate                                 : 128 Kbps
Channel(s)                               : 2 channels
Sampling rate                            : 44.1 KHz
Compression mode                         : Lossy
Stream size                              : 20.7 MiB (17%)
Title                                    : Hindi Audio By FARAZ
Language                                 : English
Default                                  : Yes
Forced                                   : No











Resume Link



Code: [Select]
http://www.fileopic.com/vpltmw7y3lpp.html
Resume Link


Code: [Select]
http://uploadblast.com/v9p3lleojpqq

Share this topic on FacebookShare this topic on GoogleShare this topic on MySpaceShare this topic on TwitterShare this topic on Yahoo




December 09, 2012, 03:14:53 PM
Reply #1
  • Royal Member
  • ****
  • Thank You: 1
  • Reputation: 2
  • Activity:
    2.2%
  • Posts: 880
  • Topics: 2
  • Join Date: Apr 2012
  • ShareSpark Member
Thanx for Sharing . . . . . . . . . . . . . .

Tags:
 

Related Topics





Back to top