+ ShareSpark.net »  :::: Bollywood Zone » Regional Movies » Punjabi Movies
|-  Angrej (2015) Punjabi - 720p DVDRiP [999MB]


Mastercard 10% Off

Angrej (2015) Punjabi - 720p DVDRiP [999MB]

0 Members and 1 Guest are viewing this topic.

July 26, 2017, 06:12:23 PM
  • Team SSX
  • Royal Member
  • ***
  • Topic Author
  • Thank You: 162
  • Reputation: 144
  • Activity:
    0%
  • Country: in
  • Posts: 925
  • Topics: 196
  • Join Date: Nov 2011
  • ShareSpark Member


Angrej (2015) Punjabi - 720p DVDRiP - 999MB

 :plot:
Geja falls in love with Maarho. When her family learns of their relationship, it is scorned up. Before their love fully blooms, a rich man enters Maarho's life and Geja finds solace in Dhan Kaur.

 :info:
General
Unique ID : 236824460919218389476535562521322716856 (0xB22ABB69E84BA185867D7FD80783FEB8)
Complete name : files/Angrej_(2015)_Punjabi_-_720p_DVDRiP_-_999MB_-_Zaeem.mkv
Format : Matroskaa
Format version : Version 4 / Version 2
File size : 999 MiB
Duration : 2 h 11 min
Overall bit rate : 1 059 kb/s
Movie name : Angrej (2015) Punjabi - 720p DVDRiP - 999MB - Zaeem
Encoded date : UTC 2015-11-16 07:29:55
Writing application : mkvmerge v8.5.2 ('Crosses') 32bit
Writing library : libebml v1.3.3 + libmatroska v1.4.4

Video
ID : 1
Format : AVC
Format/Info : Advanced Video Codec
Format profile : [email protected]
Format settings, CABAC : Yes
Format settings, ReFrames : 5 frames
Codec ID : V_MPEG4/ISO/AVC
Duration : 2 h 11 min
Bit rate : 994 kb/s
Width : 1 280 pixels
Height : 544 pixels
Display aspect ratio : 2.35:1
Frame rate mode : Constant
Frame rate : 23.976 (24000/1001) FPS
Color space : YUV
Chroma subsampling : 4:2:0
Bit depth : 8 bits
Scan type : Progressive
Bits/(Pixel*Frame) : 0.060
Stream size : 938 MiB (94%)
Title : Zaeem
Writing library : x264 core 146 r2538 121396c
Encoding settings : cabac=1 / ref=5 / deblock=1:-1:-1 / analyse=0x3:0x133 / me=umh / subme=7 / psy=1 / psy_rd=1.00:0.00 / mixed_ref=1 / me_range=16 / chroma_me=1 / trellis=2 / 8x8dct=1 / cqm=0 / deadzone=21,11 / fast_pskip=0 / chroma_qp_offset=0 / threads=16 / lookahead_threads=2 / sliced_threads=0 / nr=0 / decimate=1 / interlaced=0 / bluray_compat=0 / constrained_intra=0 / bframes=3 / b_pyramid=2 / b_adapt=1 / b_bias=0 / direct=1 / weightb=1 / open_gop=0 / weightp=2 / keyint=240 / keyint_min=23 / scenecut=40 / intra_refresh=0 / rc_lookahead=40 / rc=2pass / mbtree=1 / bitrate=994 / ratetol=1.0 / qcomp=0.60 / qpmin=10 / qpmax=51 / qpstep=4 / cplxblur=20.0 / qblur=0.5 / vbv_maxrate=20000 / vbv_bufsize=25000 / nal_hrd=none / filler=0 / ip_ratio=1.40 / aq=2:1.00
Default : Yes
Forced : No

Audio
ID : 2
Format : AAC
Format/Info : Advanced Audio Codec
Format profile : HE-AAC / LC
Codec ID : A_AAC
Duration : 2 h 11 min
Bit rate : 63.4 kb/s
Channel(s) : 2 channels
Channel positions : Front: L R
Sampling rate : 48.0 kHz / 24.0 kHz
Frame rate : 23.438 FPS (1024 spf)
Compression mode : Lossy
Delay relative to video : 31 ms
Stream size : 59.8 MiB (6%)
Title : Zaeem
Default : Yes
Forced : No

Text
ID : 3
Format : UTF-8
Codec ID : S_TEXT/UTF8
Codec ID/Info : UTF-8 Plain Text
Duration : 2 h 8 min
Bit rate : 69 b/s
Count of elements : 1878
Stream size : 64.9 KiB (0%)
Title : Zaeem
Default : Yes
Forced : No

 :ss:


 :download:










Share this topic on FacebookShare this topic on GoogleShare this topic on MySpaceShare this topic on TwitterShare this topic on Yahoo



:bounce:
  :bounce:

Thanks given by:


July 26, 2017, 06:32:34 PM
Reply #1
  • Begginer
  • **
  • Thank You: 3
  • Reputation: 4
  • Activity:
    0%
  • Country: pk
  • Posts: 66
  • Topics: 3
  • Join Date: Dec 2015
  • ShareSpark Member

Tags: angrej 2015 Punjabi 720p DVDRip 
 

Related Topics

  Subject / Started by Replies Last post
0 Replies
1067 Views
Last post August 06, 2015, 02:37:33 PM
by YOGESH19
0 Replies
1086 Views
Last post August 07, 2015, 10:32:42 AM
by тнє ωαll 81317
0 Replies
781 Views
Last post November 16, 2015, 08:36:53 AM
by тнє ωαll 81317
0 Replies
799 Views
Last post November 18, 2015, 10:01:04 PM
by -Ð@Rk.ÐèVi£-
0 Replies
1003 Views
Last post January 18, 2016, 04:24:56 PM
by ♥ Mann ♥




Back to top