+ ShareSpark.net »  :::: Dubbed Zone (Dubbed English in Hindi) » TV Shows (Dubbed in Hindi)
|- Narcos S01E01 720p WEBRip x265 HEVC AC3 E-Subs Dual Audio [Hindi 5.1CH + English] 325MB [CraZzyBoy]


TV and Appliances

Narcos S01E01 720p WEBRip x265 HEVC AC3 E-Subs Dual Audio [Hindi 5.1CH + English] 325MB [CraZzyBoy]

0 Members and 1 Guest are viewing this topic.

November 13, 2017, 07:16:40 PM
  • Hero Member
  • ***
  • Topic Author
  • Thank You: 420
  • Reputation: 102
  • Activity:
    0%
  • Country: il
  • Posts: 358
  • Topics: 229
  • Join Date: Dec 2016
  • Never be bullied into silence.....
Narcos S01E01 720p WEBRip x265 HEVC AC3 E-Subs
Dual Audio [Hindi 5.1CH + English] 325MB [CraZzyBoy]






---[General]---
Format                      : Matroska
Format version              : Version 4 / Version 2
File size                   : 328 MiB
Duration                    : 56 min 56 s
Overall bit rate            : 806 kb/s

---[Video]---
Format                      : HEVC
Format/Info                 : High Efficiency Video Coding
Format profile              : [email protected]@Main
Codec ID                    : V_MPEGH/ISO/HEVC
Duration                    : 56 min 56 s
Bit rate                    : 548 kb/s
Width                       : 1 280 pixels
Height                      : 720 pixels
Display aspect ratio        : 16:9
Frame rate mode             : Constant
Frame rate                  : 23.976 (24000/1001) FPS
Color space                 : YUV
Chroma subsampling          : 4:2:0
Bit depth                   : 8 bits
Bits/(Pixel*Frame)          : 0.025
Stream size                 : 223 MiB (68%)

---[Audio 01]---
Format                      : AC-3
Format/Info                 : Audio Coding 3
Format settings, Endianness : Big
Codec ID                    : A_AC3
Duration                    : 56 min 56 s
Bit rate mode               : Constant
Bit rate                    : 192 kb/s
Channel(s)                  : 6 channels
Language                    : Hindi
Channel positions           : Front: L C R, Side: L R, LFE

---[Audio 02]---
Format                      : AAC
Format/Info                 : Advanced Audio Codec
Format profile              : HE-AAC / LC
Format settings             : Explicit
Codec ID                    : A_AAC-2
Duration                    : 56 min 56 s
Bit rate                    : 64.0 kb/s
Channel(s)                  : 2 channels
Language                    : English
Channel positions           : Front: L R

---[Subtitle]---
Codec ID                    : S_TEXT/UTF8
Codec ID/Info               : UTF-8 Plain Text
Duration                    : 56 min 9 s
Bit rate                    : 82 b/s
Count of elements           : 885
Stream size                 : 33.7 KiB (0%)
Language                    : English

---[Notes]---

Audio is Perfectly Synced!
Give Credits to ᴅᴇᴥᴛᴇʀ Wherever you Share
No Audio/Video/Subtitle Tag. Proper Clean Release





















Share this topic on FacebookShare this topic on GoogleShare this topic on MySpaceShare this topic on TwitterShare this topic on Yahoo

« Last Edit: November 13, 2017, 07:24:54 PM by ~~Ank!t~~ »



Tags:
 

Related Topics





Back to top