+ ShareSpark.net »  :::: Bollywood Zone » Regional Movies » Punjabi Movies
|- Laung Laachi 2018 DVD SCR Punjabi GOPISAHI


Laung Laachi 2018 DVD SCR Punjabi GOPISAHI

0 Members and 1 Guest are viewing this topic.

March 12, 2018, 02:03:51 PM
  • Addic7ed
  • Special Member
  • ****
  • Topic Author
  • Thank You: 404
  • Reputation: 91
  • Activity:
    0%
  • Country: in
  • Posts: 816
  • Topics: 771
  • Join Date: Oct 2013
  • ShareSpark Member

Format                         : Matroska
Format version                 : Version 4 / Version 2
File size                      : 375 MiB
Duration                       : 2 h 12 min
Overall bit rate               : 396 kb/s
Movie name                     : Laung Laachi 2018 GOPISAHI

Video
Format                         : AVC
Codec ID                       : V_MPEG4/ISO/AVC
Duration                       : 2 h 12 min
Bit rate                       : 300 kb/s
Width                          : 720 pixels
Height                         : 304 pixels
Display aspect ratio           : 2.35:1
Frame rate mode                : Constant
Frame rate                     : 29.970 (30000/1001) FPS
Stream size                    : 284 MiB (76%)
Title                          : GOPISAHI
Writing library                : x264 core 155 r2893 b00bcaf

Audio
Format                         : AAC
Duration                       : 2 h 12 min
Bit rate                       : 93.6 kb/s
Channel(s)                     : 2 channels
Channel positions              : Front: L R
Sampling rate                  : 44.1 kHz
Frame rate                     : 43.066 FPS (1024 SPF)
Compression mode               : Lossy
Stream size                    : 88.6 MiB (24%)
Language                       : Panjabi








Share this topic on FacebookShare this topic on GoogleShare this topic on MySpaceShare this topic on TwitterShare this topic on Yahoo




Tags:
 

Related Topics

  Subject / Started by Replies Last post
0 Replies
1168 Views
Last post March 10, 2018, 09:15:09 PM
by jattsahi2
2 Replies
1572 Views
Last post August 01, 2018, 07:23:57 PM
by shahzaibjaan
1 Replies
1691 Views
Last post May 02, 2018, 10:26:57 PM
by Spider King
0 Replies
878 Views
Last post August 03, 2018, 02:20:30 PM
by shahzaibjaan
1 Replies
1368 Views
Last post August 31, 2018, 09:58:05 AM
by Maher manav




Back to top