+ ShareSpark.net »  :::: Bollywood Zone » Regional Movies » Punjabi Movies
|- Bhagat singh di udeek 2018 720p HD Punjabi GOPISAHI


One Plus 6

Bhagat singh di udeek 2018 720p HD Punjabi GOPISAHI

0 Members and 1 Guest are viewing this topic.

March 20, 2018, 02:03:30 PM
  • Addic7ed
  • Special Member
  • ****
  • Topic Author
  • Thank You: 403
  • Reputation: 91
  • Activity:
    0.2%
  • Country: in
  • Posts: 816
  • Topics: 771
  • Join Date: Oct 2013
  • ShareSpark Member

Format                         : Matroska
Format version                 : Version 4 / Version 2
File size                      : 324 MiB
Duration                       : 1 h 36 min
Overall bit rate               : 469 kb/s
Movie name                     : Bhagat singh di udeek 2018 GOPISAHI

Video
Format                         : AVC
Codec ID                       : V_MPEG4/ISO/AVC
Duration                       : 1 h 36 min
Bit rate                       : 400 kb/s
Width                          : 1 280 pixels
Height                         : 544 pixels
Display aspect ratio           : 2.35:1
Frame rate mode                : Constant
Frame rate                     : 25.000 FPS
Stream size                    : 276 MiB (85%)
Title                          : GOPISAHI
Writing library                : x264
Language                       : Panjabi

Audio
Format                         : AAC
Duration                       : 1 h 36 min
Bit rate                       : 66.2 kb/s
Channel(s)                     : 6 channels
Channel positions              : Front: L C R, Side: L R, LFE
Sampling rate                  : 44.1 kHz
Frame rate                     : 43.066 FPS (1024 SPF)
Compression mode               : Lossy
Stream size                    : 46.3 MiB (14%)
Title                          : GOPISAHI
Language                       : Panjabi










Share this topic on FacebookShare this topic on GoogleShare this topic on MySpaceShare this topic on TwitterShare this topic on Yahoo

« Last Edit: March 20, 2018, 02:53:45 PM by jattsahi2 »



Tags:
 

Related Topics

  Subject / Started by Replies Last post
3 Replies
1683 Views
Last post April 05, 2018, 03:50:10 PM
by hunterz007
0 Replies
1157 Views
Last post April 09, 2018, 01:26:05 PM
by UnikAaYush
0 Replies
862 Views
Last post July 18, 2018, 10:51:48 PM
by -Ð@Rk.ÐèVi£-
0 Replies
973 Views
Last post July 19, 2018, 11:52:31 AM
by shahzaibjaan
0 Replies
879 Views
Last post August 01, 2018, 06:31:14 PM
by shahzaibjaan




Back to top