+ ShareSpark.net »  :::: Bollywood Zone » Regional Movies » Punjabi Movies
|- Subedar Joginder Singh 2018 DVDScr Punjabi GOPISAHI


Amazon Pantry Offer

Subedar Joginder Singh 2018 DVDScr Punjabi GOPISAHI

0 Members and 1 Guest are viewing this topic.

April 09, 2018, 01:26:05 PM
  • Addic7ed
  • Royal Member
  • ****
  • Topic Author
  • Thank You: 524
  • Reputation: 189
  • Activity:
    0.2%
  • Country: np
  • Posts: 1074
  • Topics: 702
  • Join Date: May 2017
  • #Me


 :plot:
Format                         : Matroska
Format version                 : Version 4 / Version 2
File size                      : 340 MiB
Duration                       : 2 h 12 min
Overall bit rate               : 359 kb/s
Movie name                     : Subedar Joginder Singh 2018 GOPISAHI

Video
Format                         : AVC
Codec ID                       : V_MPEG4/ISO/AVC
Duration                       : 2 h 12 min
Bit rate                       : 300 kb/s
Width                          : 648 pixels
Height                         : 288 pixels
Display aspect ratio           : 2.25:1
Frame rate mode                : Constant
Frame rate                     : 29.970 (30000/1001) FPS
Color space                    : YUV
Chroma subsampling             : 4:2:0
Bit depth                      : 8 bits
Scan type                      : Progressive
Bits/(Pixel*Frame)             : 0.054
Stream size                    : 284 MiB (84%)
Title                          : GOPISAHI
Writing library                : x264 core 148 r2708 86b7198
Language                       : Panjabi

Audio
Format                         : AAC
Duration                       : 2 h 12 min
Bit rate                       : 56.5 kb/s
Channel(s)                     : 2 channels
Channel positions              : Front: L R
Sampling rate                  : 44.1 kHz
Frame rate                     : 43.066 FPS (1024 SPF)
Compression mode               : Lossy
Stream size                    : 53.6 MiB (16%)
Title                          : GOPISAHI
Language                       : Panjabi


 :ss: :ss:




 :download: :download:





Share this topic on FacebookShare this topic on GoogleShare this topic on MySpaceShare this topic on TwitterShare this topic on Yahoo



Thanks given by:


Tags:
 

Related Topics

  Subject / Started by Replies Last post
3 Replies
1691 Views
Last post April 05, 2018, 03:50:10 PM
by hunterz007
0 Replies
1076 Views
Last post March 20, 2018, 02:03:30 PM
by jattsahi2
0 Replies
1762 Views
Last post April 09, 2018, 10:10:46 AM
by lucky.kapur.50
0 Replies
979 Views
Last post July 19, 2018, 11:52:31 AM
by shahzaibjaan
0 Replies
884 Views
Last post August 01, 2018, 06:31:14 PM
by shahzaibjaan




Back to top