+ ShareSpark.net »  :::: Bollywood Zone » Regional Movies » Regional Movies in Hindi
|- Spyder (2017) Hindi HDRip x264 MP3(Original Audio) -MRbuZ


Spyder (2017) Hindi HDRip x264 MP3(Original Audio) -MRbuZ

0 Members and 1 Guest are viewing this topic.

May 13, 2018, 04:16:10 PM
  • Addic7ed
  • Royal Member
  • ****
  • Topic Author
  • Thank You: 525
  • Reputation: 189
  • Activity:
    0%
  • Country: np
  • Posts: 1073
  • Topics: 702
  • Join Date: May 2017
  • #Me


 :plot:
General
Unique ID                   : 273858997569618075211504201716665842685 (0xCE07530B9C6ACBF66205D5BAFB4E7BFD)
Format                      : Matroska
Format version              : Version 4 / Version 2
File size                   : 702 MiB
Duration                    : 2 h 16 min
Overall bit rate mode       : Variable
Overall bit rate            : 719 kb/s
Encoded date                : UTC 2018-05-12 11:53:41
Writing application         : mkvmerge v22.0.0 ('At The End Of The World') 64-bit
Writing library             : libebml v1.3.5 + libmatroska v1.4.8

Video
ID                          : 1
Format                      : AVC
Format/Info                 : Advanced Video Codec
Format profile              : [email protected]
Format settings, CABAC      : Yes
Format settings, ReFrames   : 4 frames
Codec ID                    : V_MPEG4/ISO/AVC
Duration                    : 2 h 16 min
Bit rate                    : 622 kb/s
Width                       : 720 pixels
Height                      : 304 pixels
Display aspect ratio        : 2.35:1
Frame rate mode             : Constant
Frame rate                  : 29.970 (30000/1001) FPS
Color space                 : YUV
Chroma subsampling          : 4:2:0
Bit depth                   : 8 bits
Scan type                   : Progressive
Bits/(Pixel*Frame)          : 0.095
Stream size                 : 607 MiB (87%)
Writing library             : x264 core 155 r2901 7d0ff22
Encoding settings           : cabac=1 / ref=3 / deblock=1:0:0 / analyse=0x3:0x113 / me=hex / subme=7 / psy=1 / psy_rd=1.00:0.00 / mixed_ref=1 / me_range=16 / chroma_me=1 / trellis=1 / 8x8dct=1 / cqm=0 / deadzone=21,11 / fast_pskip=1 / chroma_qp_offset=-2 / threads=9 / lookahead_threads=1 / sliced_threads=0 / nr=0 / decimate=1 / interlaced=0 / bluray_compat=0 / constrained_intra=0 / bframes=3 / b_pyramid=2 / b_adapt=1 / b_bias=0 / direct=1 / weightb=1 / open_gop=0 / weightp=2 / keyint=300 / keyint_min=29 / scenecut=40 / intra_refresh=0 / rc_lookahead=40 / rc=2pass / mbtree=1 / bitrate=622 / ratetol=1.0 / qcomp=0.60 / qpmin=0 / qpmax=69 / qpstep=4 / cplxblur=20.0 / qblur=0.5 / ip_ratio=1.40 / aq=1:1.00
Language                    : Telugu
Default                     : Yes
Forced                      : No

Audio
ID                          : 2
Format                      : MPEG Audio
Format version              : Version 1
Format profile              : Layer 3
Mode                        : Joint stereo
Mode extension              : MS Stereo
Codec ID                    : A_MPEG/L3
Codec ID/Hint               : MP3
Duration                    : 2 h 16 min
Bit rate mode               : Variable
Bit rate                    : 96.0 kb/s
Channel(s)                  : 2 channels
Sampling rate               : 48.0 kHz
Frame rate                  : 41.667 FPS (1152 spf)
Compression mode            : Lossy
Stream size                 : 92.1 MiB (13%)
Writing library             : LAME3.99r
Encoding settings           : -m j -V 4 -q 3 -lowpass 15.1 --abr 96
Language                    : Hindi
Default                     : Yes
Forced                      : No


 :ss: :ss:









 :download: :download:




Share this topic on FacebookShare this topic on GoogleShare this topic on MySpaceShare this topic on TwitterShare this topic on Yahoo

« Last Edit: May 13, 2018, 04:18:21 PM by UnikAaYush »


Thanks given by:


May 24, 2018, 05:21:29 PM
Reply #1
  • Newbie
  • **
  • Thank You: 0
  • Reputation: 0
  • Activity:
    0%
  • Country: in
  • Posts: 4
  • Topics: 0
  • Join Date: May 2018
  • ShareSpark Member

Tags: aayush 
 

Related Topics

  Subject / Started by Replies Last post
5 Replies
3178 Views
Last post April 19, 2019, 04:28:13 AM
by Rabasha
0 Replies
618 Views
Last post May 12, 2018, 02:25:43 PM
by Katyayan
3 Replies
1088 Views
Last post May 12, 2018, 05:28:05 PM
by abdul.qadeer.37625843
2 Replies
1047 Views
Last post May 12, 2018, 04:57:05 PM
by YOGESH19
0 Replies
724 Views
Last post May 12, 2018, 05:14:51 PM
by Katyayan




Back to top