+ ShareSpark.net »  :::: Dubbed Zone (Dubbed English in Hindi) » TV Shows (Dubbed in Hindi)
|- Marlon Season 1 Complete 720p WEB-DL x264 Dual Audio [Hindi - English] DD5.1 - Esub ~ Ranvijay


Marlon Season 1 Complete 720p WEB-DL x264 Dual Audio [Hindi - English] DD5.1 - Esub ~ Ranvijay

0 Members and 1 Guest are viewing this topic.

June 18, 2018, 07:18:45 PM
  • Global Moderator
  • Legend Member
  • *****
  • Topic Author
  • Thank You: 13833
  • Reputation: 2817
  • Activity:
    76.6%
  • Country: in
  • Posts: 6107
  • Topics: 4994
  • Join Date: Jan 2014
  • ıllıllı ѕмoĸιng ιѕ good ғor нealтн ıllıllı :)




Marlon Season 1 Complete 720p WEB-DL x264 Dual Audio [Hindi - English] DD5.1 - Esub ~ Ranvijay

Thanks To Hammer For Hindi Audio


Quote
Format                                   : Matroska
Format version                           : Version 4 / Version 2
File size                                : 549 MiB
Duration                                 : 20 min 42 s
Overall bit rate                         : 3 708 kb/s

Video
ID                                       : 1
Format                                   : AVC
Duration                                 : 20 min 37 s
Bit rate                                 : 3 000 kb/s
Width                                    : 1 280 pixels
Height                                   : 720 pixels
Display aspect ratio                     : 16:9
Frame rate mode                          : Constant
Frame rate                               : 23.976 (24000/1001) FPS
Color space                              : YUV
Chroma subsampling                       : 4:2:0
Bit depth                                : 8 bits
Scan type                                : Progressive
Bits/(Pixel*Frame)                       : 0.136
Stream size                              : 435 MiB (79%)
Title                                    : ~Ranvijay~

Audio #1
ID                                       : 2
Format                                   : AC-3
Format/Info                              : Audio Coding 3
Codec ID                                 : A_AC3
Duration                                 : 20 min 42 s
Bit rate mode                            : Constant
Bit rate                                 : 384 kb/s
Channel(s)                               : 6 channels
Channel positions                        : Front: L C R, Side: L R, LFE
Sampling rate                            : 48.0 kHz
Frame rate                               : 31.250 FPS (1536 SPF)
Bit depth                                : 16 bits
Compression mode                         : Lossy
Delay relative to video                  : -59 ms
Stream size                              : 56.9 MiB (10%)
Title                                    : ~Ranvijay~
Language                                 : Hindi
Service kind                             : Complete Main
Default                                  : Yes
Forced                                   : No

Audio #2
ID                                       : 3
Format                                   : AC-3
Format/Info                              : Audio Coding 3
Codec ID                                 : A_AC3
Duration                                 : 20 min 37 s
Bit rate mode                            : Constant
Bit rate                                 : 384 kb/s
Channel(s)                               : 6 channels
Channel positions                        : Front: L C R, Side: L R, LFE
Sampling rate                            : 48.0 kHz
Frame rate                               : 31.250 FPS (1536 SPF)
Bit depth                                : 16 bits
Compression mode                         : Lossy
Delay relative to video                  : -83 ms
Stream size                              : 56.7 MiB (10%)
Title                                    : ~Ranvijay~
Language                                 : English
Service kind                             : Complete Main
Default                                  : No
Forced                                   : No

Text #1
ID                                       : 4
Format                                   : UTF-8
Codec ID                                 : S_TEXT/UTF8
Codec ID/Info                            : UTF-8 Plain Text
Duration                                 : 19 min 58 s
Bit rate                                 : 109 b/s
Count of elements                        : 485
Stream size                              : 16.1 KiB (0%)
Title                                    : ~Ranvijay~
Language                                 : English
Default                                  : Yes
Forced                                   : No









:download:

Quote











Rar Link


File Leeched & Uploaded From




Don't walk as you are king, walk as you don't care who the king is....!!
Never argue with an idiot. They drag you down to their level and then beat you with experience?

Share this topic on FacebookShare this topic on GoogleShare this topic on MySpaceShare this topic on TwitterShare this topic on Yahoo

« Last Edit: June 18, 2018, 07:28:35 PM by Rάήνίјάч1234 »



Don't walk as you are king, walk as you don't care who the king is....!!

Tags:
 

Related Topics





Back to top