+ ShareSpark.net »  :::: Bollywood Zone » Regional Movies » Punjabi Movies
|- Bhalwan Singh 2018 x264 720p TV Punjabi GOPISAHI


Redmi 6A

Bhalwan Singh 2018 x264 720p TV Punjabi GOPISAHI

0 Members and 1 Guest are viewing this topic.

July 19, 2018, 11:52:31 AM
  • Aur Time Well Come
  • Conqueror
  • Legend Member
  • *****
  • Topic Author
  • Thank You: 2116
  • Reputation: 602
  • Activity:
    81.4%
  • Country: pk
  • Posts: 2763
  • Topics: 1970
  • Join Date: Mar 2015
  • =$ Success Never Ends $=
Bhalwan Singh 2018 x264 720p TV Punjabi GOPISAHI









Format : Matroska

Format version : Version 4 / Version 2

File size : 546 MiB

Duration : 2 h 7 min

Overall bit rate : 597 kb/s

Movie name : Bhalwan Singh 2018 GOPISAHI


Video

Format : AVC

Codec ID : V_MPEG4/ISO/AVC

Duration : 2 h 7 min

Bit rate : 499 kb/s

Width : 1 280 pixels

Height : 576 pixels

Display aspect ratio : 2.222

Frame rate mode : Constant

Frame rate : 25.000 FPS

Color space : YUV

Chroma subsampling : 4:2:0

Bit depth : 8 bits

Scan type : Progressive

Bits/(Pixel*Frame) : 0.027

Stream size : 456 MiB (84%)

Title : GOPISAHI

Writing library : x264 core 155 r2901 7d0ff22


Audio

Format : AAC

Duration : 2 h 7 min

Bit rate : 96.0 kb/s

Channel(s) : 2 channels

Channel positions : Front: L R

Sampling rate : 48.0 kHz

Frame rate : 46.875 FPS (1024 SPF)

Compression mode : Lossy

Delay relative to video : 11 ms

Stream size : 87.9 MiB (16%)

Title : GOPISAHI

Language : Panjabi




 :ss:













 :download:






















Share this topic on FacebookShare this topic on GoogleShare this topic on MySpaceShare this topic on TwitterShare this topic on Yahoo




Tags:
 

Related Topics

  Subject / Started by Replies Last post
2 Replies
1525 Views
Last post January 19, 2018, 04:33:45 PM
by UnikAaYush
3 Replies
1686 Views
Last post April 05, 2018, 03:50:10 PM
by hunterz007
0 Replies
1072 Views
Last post March 20, 2018, 02:03:30 PM
by jattsahi2
0 Replies
1161 Views
Last post April 09, 2018, 01:26:05 PM
by UnikAaYush
0 Replies
881 Views
Last post August 01, 2018, 06:31:14 PM
by shahzaibjaan




Back to top