+ ShareSpark.net »  :::: Dubbed Zone (Dubbed English in Hindi) » English Movies Dubbed in Hindi » Small Size Dubbed Movies
|- In The Dog House 2014 x264 720p HD Hindi GOPISAHI


In The Dog House 2014 x264 720p HD Hindi GOPISAHI

0 Members and 1 Guest are viewing this topic.

August 08, 2018, 12:12:57 PM
  • Aur Time Well Come
  • Junior Moderator
  • Legend Member
  • ***
  • Topic Author
  • Thank You: 2142
  • Reputation: 607
  • Activity:
    31.8%
  • Country: pk
  • Posts: 2834
  • Topics: 2033
  • Join Date: Mar 2015
  • =$ Success Never Ends $=
In The Dog House 2014 x264 720p HD Hindi GOPISAHI









Format : Matroska
Format version : Version 4 / Version 2
File size : 352 MiB
Duration : 1 h 10 min
Overall bit rate : 696 kb/s
Movie name : In The Dog House 2014 GOPISAHI

Video
Format : AVC
Format/Info : Advanced Video Codec
Codec ID : V_MPEG4/ISO/AVC
Duration : 1 h 10 min
Bit rate : 599 kb/s
Width : 1 280 pixels
Height : 720 pixels
Display aspect ratio : 16:9
Frame rate mode : Constant
Frame rate : 25.000 FPS
Color space : YUV
Chroma subsampling : 4:2:0
Bit depth : 8 bits
Scan type : Progressive
Bits/(Pixel*Frame) : 0.026
Stream size : 303 MiB (86%)
Title : GOPISAHI
Writing library : x264 core 155 r2901 7d0ff22

Audio
Format : AAC
Duration : 1 h 10 min
Bit rate : 96.0 kb/s
Channel(s) : 2 channels
Channel positions : Front: L R
Sampling rate : 48.0 kHz
Frame rate : 46.875 FPS (1024 SPF)
Compression mode : Lossy
Delay relative to video : -42 ms
Stream size : 48.7 MiB (14%)
Title : GOPISAHI
Language : Hindi





 :ss:










 :download:
























Share this topic on FacebookShare this topic on GoogleShare this topic on MySpaceShare this topic on TwitterShare this topic on Yahoo



Thanks given by:


Tags:
 

Related Topics

  Subject / Started by Replies Last post
0 Replies
734 Views
Last post November 04, 2017, 01:54:03 PM
by jattsahi2
0 Replies
762 Views
Last post December 14, 2017, 08:12:07 PM
by jattsahi2
0 Replies
676 Views
Last post March 21, 2018, 01:50:08 PM
by jattsahi2
1 Replies
2771 Views
Last post March 29, 2018, 02:38:49 AM
by jann_ali
0 Replies
473 Views
Last post August 08, 2018, 01:29:23 PM
by shahzaibjaan




Back to top