+ ShareSpark.net »  :::: Dubbed Zone (Dubbed English in Hindi) » English Movies Dubbed in Hindi » Small Size Dubbed Movies
|- Step Up Revolution 2012 x264 720p Esub BluRay Dual Audio English Hindi GOPISAHI


Electroncs Sale

Step Up Revolution 2012 x264 720p Esub BluRay Dual Audio English Hindi GOPISAHI

0 Members and 1 Guest are viewing this topic.

August 28, 2018, 11:55:56 AM
  • Aur Time Well Come
  • Conqueror
  • Legend Member
  • *****
  • Topic Author
  • Thank You: 2114
  • Reputation: 601
  • Activity:
    84%
  • Country: pk
  • Posts: 2746
  • Topics: 1960
  • Join Date: Mar 2015
  • =$ Success Never Ends $=
Step Up Revolution 2012 x264 720p Esub BluRay Dual Audio English Hindi GOPISAHI








Format : Matroska

Format version : Version 4 / Version 2

File size : 631 MiB

Duration : 1 h 38 min

Overall bit rate : 893 kb/s

Movie name : Step Up Revolution 2012 GOPISAHI


Video

Format : AVC

Format/Info : Advanced Video Codec

Format profile : [email protected]

Codec ID : V_MPEG4/ISO/AVC

Duration : 1 h 38 min

Bit rate : 699 kb/s

Width : 1 280 pixels

Height : 528 pixels

Display aspect ratio : 2.40:1

Frame rate mode : Constant

Frame rate : 23.976 (24000/1001) FPS

Color space : YUV

Chroma subsampling : 4:2:0

Bit depth : 8 bits

Scan type : Progressive

Bits/(Pixel*Frame) : 0.043

Stream size : 493 MiB (78%)

Title : GOPISAHI

Writing library : x264 core 155 r2901 7d0ff22


Audio #1

Format : AAC

Format/Info : Advanced Audio Codec

Duration : 1 h 38 min

Bit rate : 96.0 kb/s

Channel(s) : 2 channels

Channel positions : Front: L R

Sampling rate : 48.0 kHz

Frame rate : 46.875 FPS (1024 SPF)

Compression mode : Lossy

Delay relative to video : -21 ms

Stream size : 67.8 MiB (11%)

Title : GOPISAHI

Language : Hindi


Audio #2

Format : AAC

Format/Info : Advanced Audio Codec

Duration : 1 h 38 min

Bit rate : 96.0 kb/s

Channel(s) : 2 channels

Channel positions : Front: L R

Sampling rate : 48.0 kHz

Frame rate : 46.875 FPS (1024 SPF)

Compression mode : Lossy

Delay relative to video : -21 ms

Stream size : 67.7 MiB (11%)

Title : GOPISAHI

Language : English


Text

Stream size : 36.6 KiB (0%)





 :ss:














 :download:






















Share this topic on FacebookShare this topic on GoogleShare this topic on MySpaceShare this topic on TwitterShare this topic on Yahoo




Tags:
 

Related Topics





Back to top