+ ShareSpark.net »  :::: Bollywood Zone » Regional Movies » Punjabi Movies
|- Kurmaiyan 2018 x264 720p Punjabi GOPISAHI


Electroncs Sale

Kurmaiyan 2018 x264 720p Punjabi GOPISAHI

0 Members and 1 Guest are viewing this topic.

October 23, 2018, 03:25:18 PM
  • Aur Time Well Come
  • Conqueror
  • Legend Member
  • *****
  • Topic Author
  • Thank You: 2116
  • Reputation: 602
  • Activity:
    74.2%
  • Country: pk
  • Posts: 2767
  • Topics: 1971
  • Join Date: Mar 2015
  • =$ Success Never Ends $=
Kurmaiyan 2018 x264 720p Punjabi GOPISAHI









Format : Matroska
Format version : Version 4 / Version 2
File size : 676 MiB
Duration : 2 h 15 min
Overall bit rate : 697 kb/s
Movie name : Kurmaiyan 2018 GOPISAHI

Video
Format : AVC
Format/Info : Advanced Video Codec
Codec ID : V_MPEG4/ISO/AVC
Duration : 2 h 15 min
Bit rate : 599 kb/s
Width : 1 280 pixels
Height : 580 pixels
Display aspect ratio : 2.40:1
Frame rate mode : Constant
Frame rate : 23.976 (24000/1001) FPS
Color space : YUV
Chroma subsampling : 4:2:0
Bit depth : 8 bits
Scan type : Progressive
Bits/(Pixel*Frame) : 0.034
Stream size : 580 MiB (86%)
Title : GOPISAHI
Writing library : x264 core 155 r2901 7d0ff22

Audio
Format : AAC
Format/Info : Advanced Audio Codec
Duration : 2 h 15 min
Bit rate : 96.0 kb/s
Channel(s) : 2 channels
Channel positions : Front: L R
Sampling rate : 48.0 kHz
Frame rate : 46.875 FPS (1024 SPF)
Compression mode : Lossy
Stream size : 93.2 MiB (14%)
Title : GOPISAHI
Language : Panjabi





 :ss:










 :download:



























Share this topic on FacebookShare this topic on GoogleShare this topic on MySpaceShare this topic on TwitterShare this topic on Yahoo



Thanks given by:


Tags:
 

Related Topics

  Subject / Started by Replies Last post
1 Replies
1199 Views
Last post September 01, 2018, 11:03:54 AM
by 【M】【A】【L】【I】【K】 【Z】【E】【E】
0 Replies
576 Views
Last post December 24, 2018, 12:25:46 PM
by shahzaibjaan
0 Replies
463 Views
Last post January 26, 2019, 04:33:54 PM
by shahzaibjaan
1 Replies
646 Views
Last post April 17, 2019, 06:10:16 PM
by Changezi
0 Replies
160 Views
Last post May 03, 2019, 11:58:37 AM
by shahzaibjaan




Back to top