+ ShareSpark.net »  :::: Bollywood Zone » Regional Movies » Bengali Movies
|- HAAMI (2018) 1080P WEBHD UNTOUCHED ESUB - DTONE


Mastercard 10% Off

HAAMI (2018) 1080P WEBHD UNTOUCHED ESUB - DTONE

0 Members and 1 Guest are viewing this topic.

November 22, 2018, 01:18:56 PM
  • Feeling Special
  • Conqueror
  • Elite Member
  • *****
  • Topic Author
  • Thank You: 377
  • Reputation: 58
  • Activity:
    0%
  • Country: in
  • Posts: 465
  • Topics: 323
  • Join Date: Oct 2016
  • Born To Live
:title:
HAAMI (2018) 1080P WEBHD UNTOUCHED ESUB - DTONE





 :info:
General
Complete name                            : Haami (2018) 1080p WEBHD Untouched ESub - DTOne.mp4
Format                                   : MPEG-4
Format profile                           : Base Media
Codec ID                                 : isom (isom/iso2/avc1/mp41)
File size                                : 4.03 GiB
Duration                                 : 2 h 6 min
Overall bit rate mode                    : Constant
Overall bit rate                         : 4 568 kb/s
Writing application                      : Lavf58.17.101

Video
ID                                       : 1
Format                                   : AVC
Format/Info                              : Advanced Video Codec
Format profile                           : [email protected]
Format settings                          : CABAC / 1 Ref Frames
Format settings, CABAC                   : Yes
Format settings, RefFrames               : 1 frame
Format settings, GOP                     : M=1, N=100
Codec ID                                 : avc1
Codec ID/Info                            : Advanced Video Coding
Duration                                 : 2 h 6 min
Bit rate mode                            : Constant
Bit rate                                 : 4 500 kb/s
Width                                    : 1 920 pixels
Height                                   : 1 080 pixels
Display aspect ratio                     : 16:9
Frame rate mode                          : Constant
Frame rate                               : 25.000 FPS
Color space                              : YUV
Chroma subsampling                       : 4:2:0
Bit depth                                : 8 bits
Scan type                                : Progressive
Bits/(Pixel*Frame)                       : 0.087
Stream size                              : 3.97 GiB (99%)

Audio
ID                                       : 2
Format                                   : AAC
Format/Info                              : Advanced Audio Codec
Format profile                           : LC
Codec ID                                 : mp4a-40-2
Duration                                 : 2 h 6 min
Bit rate mode                            : Constant
Bit rate                                 : 61.4 kb/s
Channel(s)                               : 2 channels
Channel positions                        : Front: L R
Sampling rate                            : 48.0 kHz
Frame rate                               : 46.875 FPS (1024 SPF)
Compression mode                         : Lossy
Stream size                              : 55.5 MiB (1%)
Default                                  : Yes
Alternate group                          : 1


 :ss:





 :lang:

English Subtittle



 :download:



Share this topic on FacebookShare this topic on GoogleShare this topic on MySpaceShare this topic on TwitterShare this topic on Yahoo



Born To Live. So always Positive

Tags:
 

Related Topics

  Subject / Started by Replies Last post
4 Replies
1654 Views
Last post March 09, 2018, 03:24:54 AM
by jaydeep123
0 Replies
862 Views
Last post July 18, 2018, 10:51:48 PM
by -Ð@Rk.ÐèVi£-
0 Replies
978 Views
Last post July 18, 2018, 10:59:00 PM
by -Ð@Rk.ÐèVi£-
1 Replies
1087 Views
Last post August 01, 2018, 07:12:24 PM
by shahzaibjaan
2 Replies
1064 Views
Last post January 10, 2019, 12:12:02 PM
by jami5490




Back to top