+ ShareSpark.net »  :::: Bollywood Zone » Regional Movies » Punjabi Movies
|- Qismat 2018 x264 720p SD Punjabi GOPISAHI


10% SBI and 10% Discount

Qismat 2018 x264 720p SD Punjabi GOPISAHI

0 Members and 1 Guest are viewing this topic.

December 24, 2018, 12:25:46 PM
  • Aur Time Well Come
  • Conqueror
  • Legend Member
  • *****
  • Topic Author
  • Thank You: 2116
  • Reputation: 602
  • Activity:
    73.8%
  • Country: pk
  • Posts: 2769
  • Topics: 1972
  • Join Date: Mar 2015
  • =$ Success Never Ends $=
Qismat 2018 x264 720p SD Punjabi GOPISAHI












Quote
Format : Matroska
Format version : Version 4 / Version 2
File size : 657 MiB
Duration : 2 h 11 min
Overall bit rate : 697 kb/s
Movie name : Qismat 2018 GOPISAHI

Video
Format : AVC
Format/Info : Advanced Video Codec
Codec ID : V_MPEG4/ISO/AVC
Duration : 2 h 11 min
Bit rate : 599 kb/s
Width : 1 280 pixels
Height : 536 pixels
Display aspect ratio : 2.40:1
Frame rate mode : Constant
Frame rate : 25.000 FPS
Color space : YUV
Chroma subsampling : 4:2:0
Bit depth : 8 bits
Scan type : Progressive
Bits/(Pixel*Frame) : 0.035
Stream size : 565 MiB (86%)
Title : GOPISAHI
Writing library : x264 core 155 r2901 7d0ff22

Audio
Format : AAC
Duration : 2 h 11 min
Bit rate : 96.0 kb/s
Channel(s) : 2 channels
Channel positions : Front: L R
Sampling rate : 48.0 kHz
Frame rate : 46.875 FPS (1024 SPF)
Compression mode : Lossy
Delay relative to video : -21 ms
Stream size : 90.8 MiB (14%)
Title : GOPISAHI
Language : Panjabi



 :ss:








 :download:















Share this topic on FacebookShare this topic on GoogleShare this topic on MySpaceShare this topic on TwitterShare this topic on Yahoo




Tags:
 

Related Topics

  Subject / Started by Replies Last post
1 Replies
1200 Views
Last post September 01, 2018, 11:03:54 AM
by 【M】【A】【L】【I】【K】 【Z】【E】【E】
0 Replies
735 Views
Last post October 23, 2018, 03:25:18 PM
by shahzaibjaan
0 Replies
468 Views
Last post January 26, 2019, 04:33:54 PM
by shahzaibjaan
1 Replies
651 Views
Last post April 17, 2019, 06:10:16 PM
by Changezi
0 Replies
164 Views
Last post May 03, 2019, 11:58:37 AM
by shahzaibjaan




Back to top