+ ShareSpark.net »  :::: Bollywood Zone » Bollywood Movies (Original Rips)
|- Manikarnika-The Queen of Jhansi.(2019).720p.WEBRip.Hindi.x264.AAC.5.1.ESub.-.LHDm [Telly]


10% SBI and 10% Discount

Manikarnika-The Queen of Jhansi.(2019).720p.WEBRip.Hindi.x264.AAC.5.1.ESub.-.LHDm [Telly]

0 Members and 1 Guest are viewing this topic.

March 23, 2019, 08:54:19 PM
  • Conqueror
  • Legend Member
  • *****
  • Topic Author
  • Thank You: 6985
  • Reputation: 1427
  • Activity:
    100%
  • Country: np
  • Posts: 2842
  • Topics: 2224
  • Join Date: Jul 2016
  • *Love Forever*
Manikarnika-The Queen of Jhansi.(2019).720p.WEBRip.Hindi.x264.AAC.5.1.ESub.-.LHDm [Telly]




 :info:
Format                                   : Matroska
Format version                           : Version 4
File size                                : 1.29 GiB
Duration                                 : 2 h 20 min
Overall bit rate                         : 1 314 kb/s


Video
ID                                       : 1
Format                                   : AVC
Format/Info                              : Advanced Video Codec
Format profile                           : [email protected]
Format settings                          : CABAC / 4 Ref Frames
Format settings, CABAC                   : Yes
Format settings, RefFrames               : 4 frames
Codec ID                                 : V_MPEG4/ISO/AVC
Duration                                 : 2 h 20 min
Bit rate                                 : 1 121 kb/s
Width                                    : 1 280 pixels
Height                                   : 542 pixels
Display aspect ratio                     : 2.35:1
Frame rate mode                          : Constant
Frame rate                               : 25.000 FPS
Color space                              : YUV
Chroma subsampling                       : 4:2:0
Bit depth                                : 8 bits
Scan type                                : Progressive
Bits/(Pixel*Frame)                       : 0.065
Stream size                              : 1.10 GiB (85%)
Default                                  : Yes
Forced                                   : No
Color range                              : Limited
Color primaries                          : BT.709
Transfer characteristics                 : BT.709
Matrix coefficients                      : BT.709


Audio
ID                                       : 2
Format                                   : AAC LC
Format/Info                              : Advanced Audio Codec
Codec ID                                 : A_AAC-2
Duration                                 : 2 h 20 min
Bit rate                                 : 192 kb/s
Channel(s)                               : 6 channels
Channel layout                           : C L R Ls Rs LFE
Sampling rate                            : 48.0 kHz
Frame rate                               : 46.875 FPS (1024 SPF)
Compression mode                         : Lossy
Delay relative to video                  : -21 ms
Stream size                              : 192 MiB (15%)
Language                                 : Hindi
Default                                  : Yes
Forced                                   : No


Text
ID                                       : 3
Format                                   : UTF-8
Codec ID                                 : S_TEXT/UTF8
Codec ID/Info                            : UTF-8 Plain Text
Duration                                 : 2 h 11 min
Bit rate                                 : 42 b/s
Count of elements                        : 1250
Stream size                              : 40.9 KiB (0%)
Language                                 : English
Default                                  : Yes
Forced                                   : No



 :ss:







 :download:



Share this topic on FacebookShare this topic on GoogleShare this topic on MySpaceShare this topic on TwitterShare this topic on Yahoo

« Last Edit: March 24, 2019, 06:38:58 PM by Special26 »


Thanks given by:


March 23, 2019, 10:55:52 PM
Reply #1
  • Royal Member
  • ****
  • Thank You: 5
  • Reputation: 5
  • Activity:
    1.4%
  • Country: in
  • Posts: 927
  • Topics: 8
  • Join Date: Aug 2013
  • ShareSpark Member

March 24, 2019, 06:40:51 PM
Reply #2
  • Conqueror
  • Legend Member
  • *****
  • Topic Author
  • Thank You: 6985
  • Reputation: 1427
  • Activity:
    100%
  • Country: np
  • Posts: 2842
  • Topics: 2224
  • Join Date: Jul 2016
  • *Love Forever*

March 25, 2019, 10:56:47 AM
Reply #3
  • Royal Member
  • ****
  • Thank You: 5
  • Reputation: 5
  • Activity:
    1.4%
  • Country: in
  • Posts: 927
  • Topics: 8
  • Join Date: Aug 2013
  • ShareSpark Member

Tags:
 

Related Topics





Back to top