+ ShareSpark.net »  :::: Bollywood Zone » Bollywood Movies (Original Rips)
|- Dhamaal.(2007).720p.HQ.WEBRip.Hindi.x264.AAC.-.LHDm [Telly]


Dhamaal.(2007).720p.HQ.WEBRip.Hindi.x264.AAC.-.LHDm [Telly]

0 Members and 1 Guest are viewing this topic.

March 29, 2019, 11:04:10 AM
  • Junior Moderator
  • Legend Member
  • ***
  • Topic Author
  • Thank You: 7272
  • Reputation: 1490
  • Activity:
    97.8%
  • Country: np
  • Posts: 3061
  • Topics: 2386
  • Join Date: Jul 2016
  • *Love Forever*
Dhamaal.(2007).720p.HQ.WEBRip.Hindi.x264.AAC.-.LHDm [Telly]




 :info:
Format                                   : Matroska
Format version                           : Version 4
File size                                : 1.25 GiB
Duration                                 : 2 h 10 min
Overall bit rate                         : 1 378 kb/s


Video
ID                                       : 1
Format                                   : AVC
Format/Info                              : Advanced Video Codec
Format profile                           : [email protected]
Format settings                          : CABAC / 4 Ref Frames
Format settings, CABAC                   : Yes
Format settings, RefFrames               : 4 frames
Codec ID                                 : V_MPEG4/ISO/AVC
Duration                                 : 2 h 10 min
Bit rate                                 : 1 237 kb/s
Width                                    : 1 280 pixels
Height                                   : 544 pixels
Display aspect ratio                     : 2.35:1
Original display aspect ratio            : 2.35:1
Frame rate mode                          : Constant
Frame rate                               : 25.000 FPS
Color space                              : YUV
Chroma subsampling                       : 4:2:0
Bit depth                                : 8 bits
Scan type                                : Progressive
Bits/(Pixel*Frame)                       : 0.071
Stream size                              : 1.14 GiB (91%)
Default                                  : Yes
Forced                                   : No


Audio
ID                                       : 2
Format                                   : AAC LC
Format/Info                              : Advanced Audio Codec
Codec ID                                 : A_AAC-2
Duration                                 : 2 h 10 min
Bit rate                                 : 128 kb/s
Channel(s)                               : 2 channels
Channel layout                           : L R
Sampling rate                            : 44.1 kHz
Frame rate                               : 43.066 FPS (1024 SPF)
Compression mode                         : Lossy
Delay relative to video                  : -46 ms
Stream size                              : 119 MiB (9%)
Default                                  : Yes
Forced                                   : No


Text
ID                                       : 3
Format                                   : UTF-8
Codec ID                                 : S_TEXT/UTF8
Codec ID/Info                            : UTF-8 Plain Text
Duration                                 : 1 h 2 min
Bit rate                                 : 0 b/s
Count of elements                        : 2
Stream size                              : 130 Bytes (0%)
Default                                  : Yes
Forced                                   : No



 :ss:








 :download:


Share this topic on FacebookShare this topic on GoogleShare this topic on MySpaceShare this topic on TwitterShare this topic on Yahoo



Thanks given by:


Tags:
 

Related Topics

  Subject / Started by Replies Last post
0 Replies
140 Views
Last post February 06, 2019, 09:07:30 AM
by Special26
0 Replies
260 Views
Last post March 13, 2019, 08:00:18 PM
by Special26
0 Replies
198 Views
Last post March 15, 2019, 11:17:26 AM
by Special26
1 Replies
506 Views
Last post July 02, 2019, 11:26:49 PM
by X-MEN
0 Replies
150 Views
Last post March 27, 2019, 10:26:33 AM
by Special26




Back to top