+ ShareSpark.net »  :::: Bollywood Zone » Bollywood Movies (Original Rips)
|- Tumsa.Nahin.Dekha (2004).720p.WEB-DL.Hindi.x264.AAC.5.1.ESub.-.LHDm [Telly]


Electroncs Sale
  • Tumsa.Nahin.Dekha (2004).720p.WEB-DL.Hindi.x264.AAC.5.1.ESub.-.LHDm [Telly] 5 1
Currently:  

Tumsa.Nahin.Dekha (2004).720p.WEB-DL.Hindi.x264.AAC.5.1.ESub.-.LHDm [Telly]

0 Members and 1 Guest are viewing this topic.

March 29, 2019, 07:40:22 PM
  • Conqueror
  • Legend Member
  • *****
  • Topic Author
  • Thank You: 6872
  • Reputation: 1405
  • Activity:
    100%
  • Country: np
  • Posts: 2768
  • Topics: 2164
  • Join Date: Jul 2016
  • *Love Forever*
Tumsa.Nahin.Dekha (2004).720p.WEB-DL.Hindi.x264.AAC.5.1.ESub.-.LHDm [Telly]




 :info:
Format                                   : Matroska
Format version                           : Version 4
File size                                : 1.35 GiB
Duration                                 : 2 h 7 min
Overall bit rate                         : 1 518 kb/s


Video
ID                                       : 1
Format                                   : AVC
Format/Info                              : Advanced Video Codec
Format profile                           : [email protected]
Format settings                          : CABAC / 4 Ref Frames
Format settings, CABAC                   : Yes
Format settings, RefFrames               : 4 frames
Codec ID                                 : V_MPEG4/ISO/AVC
Duration                                 : 2 h 7 min
Bit rate                                 : 1 271 kb/s
Width                                    : 1 280 pixels
Height                                   : 544 pixels
Display aspect ratio                     : 2.35:1
Frame rate mode                          : Constant
Frame rate                               : 25.000 FPS
Color space                              : YUV
Chroma subsampling                       : 4:2:0
Bit depth                                : 8 bits
Scan type                                : Progressive
Bits/(Pixel*Frame)                       : 0.073
Stream size                              : 1.12 GiB (83%)
Language                                 : Hindi
Default                                  : Yes
Forced                                   : No


Audio
ID                                       : 2
Format                                   : AAC LC
Format/Info                              : Advanced Audio Codec
Codec ID                                 : A_AAC-2
Duration                                 : 2 h 7 min
Bit rate                                 : 253 kb/s
Channel(s)                               : 6 channels
Channel layout                           : C L R Ls Rs LFE
Sampling rate                            : 44.1 kHz
Frame rate                               : 43.066 FPS (1024 SPF)
Compression mode                         : Lossy
Stream size                              : 230 MiB (17%)
Default                                  : Yes
Forced                                   : No


Text
ID                                       : 3
Format                                   : UTF-8
Codec ID                                 : S_TEXT/UTF8
Codec ID/Info                            : UTF-8 Plain Text
Duration                                 : 1 h 2 min
Bit rate                                 : 0 b/s
Count of elements                        : 2
Stream size                              : 130 Bytes (0%)
Default                                  : Yes
Forced                                   : No



 :ss:









 :download:



Share this topic on FacebookShare this topic on GoogleShare this topic on MySpaceShare this topic on TwitterShare this topic on Yahoo



Thanks given by:


March 29, 2019, 07:53:31 PM
Reply #1
  • Begginer
  • **
  • Thank You: 1
  • Reputation: 8
  • Activity:
    4.6%
  • Country: in
  • Posts: 67
  • Topics: 1
  • Join Date: Sep 2015
  • ShareSpark Member
« Last Edit: March 29, 2019, 08:12:00 PM by Special26 »

Tags:
 

Related Topics





Back to top