+ ShareSpark.net »  :::: Dubbed Zone (Dubbed English in Hindi) » English Movies Dubbed in Hindi
|- The Ipcress File 1965 x264 720p Esub BluRay Dual Audio English Hindi GOPISAHI


The Ipcress File 1965 x264 720p Esub BluRay Dual Audio English Hindi GOPISAHI

0 Members and 1 Guest are viewing this topic.

April 08, 2019, 06:36:14 PM
  • Aur Time Well Come
  • Junior Moderator
  • Legend Member
  • ***
  • Topic Author
  • Thank You: 2135
  • Reputation: 606
  • Activity:
    33.8%
  • Country: pk
  • Posts: 2814
  • Topics: 2013
  • Join Date: Mar 2015
  • =$ Success Never Ends $=
The Ipcress File 1965 x264 720p Esub BluRay Dual Audio English Hindi GOPISAHI







Format : Matroska
Format version : Version 4 / Version 2
File size : 688 MiB
Duration : 1 h 47 min
Overall bit rate : 894 kb/s
Movie name : The Ipcress File 1965 GOPISAHI

Video
Format : AVC
Codec ID : V_MPEG4/ISO/AVC
Duration : 1 h 47 min
Bit rate : 699 kb/s
Width : 1 280 pixels
Height : 544 pixels
Display aspect ratio : 2.35:1
Frame rate mode : Constant
Frame rate : 23.976 (24000/1001) FPS
Color space : YUV
Chroma subsampling : 4:2:0
Bit depth : 8 bits
Scan type : Progressive
Bits/(Pixel*Frame) : 0.042
Stream size : 538 MiB (78%)
Title : GOPISAHI
Writing library : x264 core 157 r2935 545de2f

Audio #1
Format : AAC
Duration : 1 h 46 min
Bit rate : 96.0 kb/s
Channel(s) : 2 channels
Channel positions : Front: L R
Sampling rate : 48.0 kHz
Frame rate : 46.875 FPS (1024 SPF)
Compression mode : Lossy
Delay relative to video : 6 s 546 ms
Stream size : 73.7 MiB (11%)
Title : GOPISAHI
Language : Hindi

Audio #2
Format : AAC
Duration : 1 h 47 min
Bit rate : 96.0 kb/s
Channel(s) : 2 channels
Channel positions : Front: L R
Sampling rate : 48.0 kHz
Frame rate : 46.875 FPS (1024 SPF)
Compression mode : Lossy
Delay relative to video : -21 ms
Stream size : 74.2 MiB (11%)
Title : GOPISAHI
Language : English

Text
Language : English





 :ss:










 :download:







Share this topic on FacebookShare this topic on GoogleShare this topic on MySpaceShare this topic on TwitterShare this topic on Yahoo




Tags:
 

Related Topics





Back to top