+ ShareSpark.net »  :::: Hollywood Zone » Hollywood Movies (Original Rips) » Small Size Hollywood Movies
|- I.Frankenstein.2014.BBRip.480p.x264.AAC-VYTO [P2PDL] (330 MB)


10% SBI and 10% Discount
  • I.Frankenstein.2014.BBRip.480p.x264.AAC-VYTO [P2PDL] (330 MB) 5 1
Currently:  

I.Frankenstein.2014.BBRip.480p.x264.AAC-VYTO [P2PDL] (330 MB)

0 Members and 1 Guest are viewing this topic.

May 01, 2014, 08:50:58 AM
  • Admin
  • Legend Member
  • ****
  • Topic Author
  • Thank You: 2702
  • Reputation: 840
  • Activity:
    0%
  • Country: in
  • Posts: 4534
  • Topics: 3161
  • Join Date: Nov 2011
  • ShareSpark Member
  • Expertises:
  • Hollywood Movies
  • Dubbed Movies
  • English PC Videos

 :title:

I.Frankenstein.2014.BBRip.480p.x264.AAC-VYTO [P2PDL] (330 MB)




 :ss:


















 :imdb:


IMDB RATING: 5.3
Genre: Action | Fantasy | Sci-Fi


 :info:

Format                         : MPEG-4
File size                      : 321 MiB
Duration                       : 1h 32mn
Overall bit rate               : 486 Kbps

Video
Format                         : AVC
Bit rate                       : 443 Kbps
Width                          : 720 pixels
Height                         : 304 pixels
Display aspect ratio           : 2.35:1
Frame rate mode                : Constant
Frame rate                     : 23.976 fps
Bit depth                      : 8 bits
Stream size                    : 293 MiB (91%)

Audio
Format                         : AAC
Bit rate mode                  : Variable
Bit rate                       : 39.8 Kbps
Channel(s)                     : 2 channels
Channel positions              : Front: L R
Sampling rate                  : 48.0 KHz
Stream size                    : 26.3 MiB (8%)
Language                       : English


 :download:

SAMPLE:



FULL MOVIE:












FOR MORE AMAZING AND QUICKER POSTS HIT THANKS QND ADD REPUTATION +

Share this topic on FacebookShare this topic on GoogleShare this topic on MySpaceShare this topic on TwitterShare this topic on Yahoo

« Last Edit: May 01, 2014, 08:55:38 AM by •°¯`•• ɲą˅ƹƹɲ ••´¯°• »



Tags:
 

Related Topics

  Subject / Started by Replies Last post
0 Replies
710 Views
Last post March 01, 2014, 10:32:28 PM
by Ńαʌєєи
0 Replies
897 Views
Last post April 12, 2014, 09:19:10 PM
by Ńαʌєєи
2 Replies
849 Views
Last post May 03, 2014, 03:49:04 PM
by Snyper
0 Replies
803 Views
Last post May 10, 2014, 10:54:38 AM
by Ńαʌєєи
0 Replies
899 Views
Last post May 25, 2014, 06:49:50 PM
by Ńαʌєєи




Back to top