+ ShareSpark.net »  :::: Dubbed Zone (Dubbed English in Hindi) » English Movies Dubbed in Hindi
|- Capricorn.One.[1977].720p.BRRip.x264.[Dual Audio].[Hindi+English].by [email protected] [ExD


Capricorn.One.[1977].720p.BRRip.x264.[Dual Audio].[Hindi+English].by [email protected] [ExD

0 Members and 1 Guest are viewing this topic.

May 24, 2014, 12:29:25 PM
  • •?((¯°·._.• [email protected]ţɨɲ[email protected]ţɨɲ •._.·°¯))؟•
  • Elite Mod (Inactive)
  • Legend Member
  • ****
  • Topic Author
  • Thank You: 1589
  • Reputation: 782
  • Activity:
    0%
  • Posts: 2759
  • Topics: 1761
  • Join Date: Feb 2014
  • •]••´º´•» gσσ∂ вує «•´º´••[•




Capricorn.One.[1977].720p.BRRip.x264.[Dual Audio].[Hindi+English].by [email protected] [ExD Exclusive]






Rip Information


Code:
Format                                   : Matroska
Format version                           : Version 2
File size                                : 992 MiB
Duration                                 : 2h 3mn
Overall bit rate                         : 1 126 Kbps
Movie name                               : Capricorn.one.[1977].720p.BRRip.x264.[Dual Audio].[Hindi+English].by [email protected] [ExD Exclusive]
Encoded date                             : UTC 2012-08-16 11:00:07

Video


Code:
Format                                   : AVC
Format/Info                              : Advanced Video Codec
Format profile                           : [email protected]
Format settings, CABAC                   : Yes
Format settings, ReFrames                : 4 frames
Muxing mode                              : Header stripping
Codec ID                                 : V_MPEG4/ISO/AVC
Duration                                 : 2h 3mn
Bit rate                                 : 776 Kbps
Width                                    : 1 280 pixels
Height                                   : 544 pixels
Display aspect ratio                     : 2.35:1
Frame rate                               : 24.000 fps
Color space                              : YUV
Chroma subsampling                       : 4:2:0
Bit depth                                : 8 bits
Scan type                                : Progressive
Bits/(Pixel*Frame)                       : 0.046
Stream size                              : 662 MiB (67%)
Title                                    : [email protected]
Writing library                          : x264 core 125 r2200 999b753

Audio 1


Code:
Format                                   : AC-3
Format/Info                              : Audio Coding 3
Mode extension                           : CM (complete main)
Format settings, Endianness              : Big
Muxing mode                              : Header stripping
Codec ID                                 : A_AC3
Duration                                 : 2h 3mn
Bit rate mode                            : Constant
Bit rate                                 : 128 Kbps
Channel(s)                               : 6 channels
Channel positions                        : Front: L C R, Side: L R, LFE
Sampling rate                            : 48.0 KHz
Bit depth                                : 16 bits
Compression mode                         : Lossy
Stream size                              : 113 MiB (11%)
Title                                    : [email protected]
Language                                 : English

Audio 2


Code:
Format                                   : AC-3
Format/Info                              : Audio Coding 3
Mode extension                           : CM (complete main)
Format settings, Endianness              : Big
Muxing mode                              : Header stripping
Codec ID                                 : A_AC3
Duration                                 : 2h 3mn
Bit rate mode                            : Constant
Bit rate                                 : 224 Kbps
Channel(s)                               : 2 channels
Channel positions                        : Front: L R
Sampling rate                            : 48.0 KHz
Bit depth                                : 16 bits
Compression mode                         : Lossy
Delay relative to video                  : 300ms
Stream size                              : 197 MiB (20%)
Title                                    : [email protected]
Language                                 : Hindi














Original Audio

==First On Net==



















D0N3!!!!

Share this topic on FacebookShare this topic on GoogleShare this topic on MySpaceShare this topic on TwitterShare this topic on Yahoo

« Last Edit: May 24, 2014, 12:31:04 PM by jatin.jatin »



Tags:
 

Related Topics





Back to top