+ ShareSpark.net »  :::: Dubbed Zone (Dubbed English in Hindi) » English Movies Dubbed in Hindi » High Resolution Movies
|- How to Train Your Dragon (2010) + Extras 1080p BluRay x264 Dual Audio [English 5.1 + Hindi 5.1] - TB


How to Train Your Dragon (2010) + Extras 1080p BluRay x264 Dual Audio [English 5.1 + Hindi 5.1] - TB

0 Members and 1 Guest are viewing this topic.

March 17, 2015, 12:53:34 PM
  • Legend Member
  • ****
  • Topic Author
  • Thank You: 984
  • Reputation: 484
  • Activity:
    0%
  • Posts: 3674
  • Topics: 2466
  • Join Date: Dec 2014
  • A SMILE ON USER'S FACE, REPUTATION and THANKS !!!


 :info:
Release Name: How to Train Your Dragon (2010)
Size: 1.98 GiB
Video: AVC | 1920 x 816 | 2000 Kbps | 23.976 FPS | 2.35:1
Audio 1: English | 448 Kbps | 6ch | AC3
Audio 2: Hindi | 448 Kbps | 6ch | AC3
Runtime: 01h 37mn 53sec
Subtitles: English
Source: BluRay.HDChina
 :imdb:
Name: How to Train Your Dragon (2010)
Genre: Animation | Adventure | Comedy
IMDB:

IMDB Rating: 8.2/10 - ?3,81,820 votes
Director: Dean DeBlois, Chris Sanders
Writers: William Davies (screenplay), Dean DeBlois (screenplay)
Cast: Jay Baruchel, Gerard Butler, Christopher Mintz-Plasse
Plot: A hapless young Viking who aspires to hunt dragons becomes the unlikely friend of a young
dragon himself, and learns there may be more to the creatures than he assumed.
Extras:
Deleted Scenes 1 - Aftermath (01:05)
Deleted Scenes 2 - Axe to Grind (04:58)
Deleted Scenes 3 - Goodbye at the Docks (01:31)
How to Draw a Dragon (10:52)
The Story Behind the Story (07:40)
The Technical Artistry of Dragon (10:13)
Viking - Sized Cast (11:44)
Extras Info:
Size: 421 MiB
Video: AVC | 1280 x 720 | 1000 Kbps | 24 + 29 FPS | 16:9
Audio : English | 224 Kbps | 2ch | AC3
Runtime: 48mn 06sec
Subtitles: None
 :info:
General
Complete name : How To Train Your Dragon (2010).mp4
Format : MPEG-4
Format profile : Base Media
Codec ID : isom
File size : 1.98 GiB
Duration : 1h 37mn
Overall bit rate : 2 897 Kbps

Video
ID : 1
Format : AVC
Format/Info : Advanced Video Codec
Format profile : [email protected]
Format settings, CABAC : Yes
Format settings, ReFrames : 4 frames
Codec ID : avc1
Codec ID/Info : Advanced Video Coding
Duration : 1h 37mn
Bit rate : 2 000 Kbps
Maximum bit rate : 16.3 Mbps
Width : 1 920 pixels
Height : 816 pixels
Display aspect ratio : 2.35:1
Frame rate mode : Constant
Frame rate : 23.976 fps
Color space : YUV
Chroma subsampling : 4:2:0
Bit depth : 8 bits
Scan type : Progressive
Bits/(Pixel*Frame) : 0.053
Stream size : 1.37 GiB (69%)
Writing library : x264 core 130 r2273 b3065e6
Encoding settings : cabac=1 / ref=4 / deblock=1:-2:-2 / analyse=0x3:0x113 / me=umh / subme=9 / psy=1 / psy_rd=1.00:0.00 / mixed_ref=1 / me_range=24 / chroma_me=1 / trellis=1 / 8x8dct=1 / cqm=0 / deadzone=21,11 / fast_pskip=1 / chroma_qp_offset=-2 / threads=3 / lookahead_threads=1 / sliced_threads=0 / nr=0 / decimate=1 / interlaced=0 / bluray_compat=0 / constrained_intra=0 / bframes=4 / b_pyramid=2 / b_adapt=1 / b_bias=0 / direct=1 / weightb=1 / open_gop=0 / weightp=2 / keyint=240 / keyint_min=24 / scenecut=40 / intra_refresh=0 / rc_lookahead=40 / rc=2pass / mbtree=1 / bitrate=2000 / ratetol=1.0 / qcomp=0.60 / qpmin=0 / qpmax=69 / qpstep=4 / cplxblur=20.0 / qblur=0.5 / vbv_maxrate=62500 / vbv_bufsize=78125 / nal_hrd=none / ip_ratio=1.40 / aq=1:1.00
Color primaries : BT.709
Transfer characteristics : BT.709
Matrix coefficients : BT.709

Audio #1
ID : 2
Format : AC-3
Format/Info : Audio Coding 3
Mode extension : CM (complete main)
Format settings, Endianness : Big
Codec ID : ac-3
Duration : 1h 37mn
Bit rate mode : Constant
Bit rate : 448 Kbps
Channel count : 6 channels
Channel positions : Front: L C R, Side: L R, LFE
Sampling rate : 48.0 KHz
Bit depth : 16 bits
Compression mode : Lossy
Stream size : 314 MiB (15%)
Language : English

Audio #2
ID : 3
Format : AC-3
Format/Info : Audio Coding 3
Mode extension : CM (complete main)
Format settings, Endianness : Big
Codec ID : ac-3
Duration : 1h 37mn
Bit rate mode : Constant
Bit rate : 448 Kbps
Channel count : 6 channels
Channel positions : Front: L C R, Side: L R, LFE
Sampling rate : 48.0 KHz
Bit depth : 16 bits
Compression mode : Lossy
Stream size : 314 MiB (15%)
Language : Hindi
 :ss:

 :download:



:note:
Respects To ::- @Hari ??,@Ðj sa?, And All The Staff's Of ShareSpark!!! :hats:
COMMENT WILL BE APPRECIATED!!!!
LEAVE IT OR TAKE IT!!!!!
:rep:  :10on10:  :peace: :thankyou:  :like: :bye:
We Are Doing A Hard Work Please Take A Minutes To Add :rep:+ & Thank You. If U Don't Know How To ADD REP+ & Thank You! See Picture!

Share this topic on FacebookShare this topic on GoogleShare this topic on MySpaceShare this topic on TwitterShare this topic on Yahoo



Thanks given by:


Tags:
 

Related Topics





Back to top