+ ShareSpark.net »  :::: Hollywood Zone » Hollywood Movies (Pre Releases)
|-  Avengers : Age of Ultron 2015 CAM V2 x264 AC3 TiTAN


Mastercard 10% Off

Avengers : Age of Ultron 2015 CAM V2 x264 AC3 TiTAN

0 Members and 1 Guest are viewing this topic.

April 25, 2015, 05:36:48 PM
  • Time Heals Everything ...
  • Hero Member
  • ***
  • Topic Author
  • Thank You: 151
  • Reputation: 45
  • Activity:
    0%
  • Country: in
  • Posts: 368
  • Topics: 174
  • Join Date: Nov 2014
  • Dont Worry Because of People , They All Gona Die
Avengers : Age of Ultron 2015 CAM V2 x264 AC3 TiTAN {By Kartik}

 :info:


Source: VOBS/Murder THx

Pretty nice first vid here.. no camera movement or heads in the way.. lmao
audio is OK, a little hollow but i had no problem understanding it thru my stereo ..for V2 I Went with different source, as to get the audio sync perfect.. got it pretty well spot on throughout..Enjoy

General

Format : Matroska
Format version : Version 2
File size : 1.45 GiB
Duration : 2h 12mn
Overall bit rate mode : Variable
Overall bit rate : 1 568 Kbps

Video
ID : 1
Format : AVC
Format/Info : Advanced Video Codec
Format profile : [email protected]
Format settings, CABAC : Yes
Format settings, ReFrames : 3 frames
Codec ID : V_MPEG4/ISO/AVC
Duration : 2h 12mn
Bit rate mode : Variable
Bit rate : 1 345 Kbps
Maximum bit rate : 40.0 Mbps
Width : 720 pixels
Height : 300 pixels
Display aspect ratio : 2.40:1
Frame rate mode : Constant
Frame rate : 29.970 fps
Color space : YUV
Chroma subsampling : 4:2:0
Bit depth : 8 bits
Scan type : Progressive
Bits/(Pixel*Frame) : 0.208
Stream size : 1.25 GiB (86%)
Default : Yes
Forced : No
Color primaries : BT.709
Transfer characteristics : BT.709
Matrix coefficients : BT.709

Audio
ID : 2
Format : AC-3
Format/Info : Audio Coding 3
Mode extension : CM (complete main)
Format settings, Endianness : Big
Codec ID : A_AC3
Duration : 2h 12mn
Bit rate mode : Constant
Bit rate : 192 Kbps
Channel(s) : 2 channels
Channel positions : Front: L R
Sampling rate : 44.1 KHz
Bit depth : 16 bits
Compression mode : Lossy
Stream size : 182 MiB (12%)
Default : Yes
Forced : No

 :ss:




 :download:






Add ThanQ & Rep+ ... If U Liked It
:)

Share this topic on FacebookShare this topic on GoogleShare this topic on MySpaceShare this topic on TwitterShare this topic on Yahoo

« Last Edit: April 25, 2015, 06:05:26 PM by Kartik Aggarwal »



Tags:
 

Related Topics





Back to top