+ ShareSpark.net »  :::: Bollywood Zone » Indian TV Shows
|- The Kapil Sharma Show (2016) - Epi 30 - 720p - Full Episode - WebDL - x264 - AAC[xDM]


HDFC 10% Off

The Kapil Sharma Show (2016) - Epi 30 - 720p - Full Episode - WebDL - x264 - AAC[xDM]

0 Members and 1 Guest are viewing this topic.

August 01, 2016, 05:50:27 AM
  • *****************
  • Head Admin
  • Legend Member
  • *****
  • Topic Author
  • Thank You: 7055
  • Reputation: 3113
  • Activity:
    10.2%
  • Country: in
  • Posts: 19285
  • Topics: 11150
  • Join Date: Mar 2012
  • The Time Is Now......







Complete name : The Kapil Sharma Show (2016) - 720p -Episode 30 - WebDL - x264 - AAC [xDM].mkv
Format : Matroska
Format version : Version 4 / Version 2
File size : 711 MiB
Duration : 1 h 0 min
Overall bit rate : 1 630 kb/s
Encoded date : UTC 2016-07-31 19:54:01
Writing application : mkvmerge v9.3.1 ('Mask Machine') 64bit
Writing library : libebml v1.3.4 + libmatroska v1.4.5

Video
ID : 1
Format : AVC
Format/Info : Advanced Video Codec
Format profile : [email protected]
Format settings, CABAC : Yes
Format settings, ReFrames : 3 frames
Format settings, GOP : M=1, N=50
Codec ID : V_MPEG4/ISO/AVC
Duration : 1 h 0 min
Bit rate : 1 500 kb/s
Width : 1 280 pixels
Height : 720 pixels
Display aspect ratio : 16:9
Frame rate mode : Constant
Frame rate : 25.000 FPS
Color space : YUV
Chroma subsampling : 4:2:0
Bit depth : 8 bits
Scan type : Progressive
Bits/(Pixel*Frame) : 0.065
Stream size : 654 MiB (92%)
Writing library : Zencoder Video Encoding System
Default : Yes
Forced : No
Color range : Limited
Color primaries : BT.709
Transfer characteristics : BT.709
Matrix coefficients : BT.709

Audio
ID : 2
Format : AAC
Format/Info : Advanced Audio Codec
Format profile : LC
Codec ID : A_AAC
Duration : 1 h 0 min
Bit rate : 128 kb/s
Channel(s) : 2 channels
Channel positions : Front: L R
Sampling rate : 44.1 kHz
Frame rate : 43.066 FPS (1024 spf)
Compression mode : Lossy
Delay relative to video : -60 ms
Stream size : 55.8 MiB (8%)
Default : Yes
Forced : No



























Share this topic on FacebookShare this topic on GoogleShare this topic on MySpaceShare this topic on TwitterShare this topic on Yahoo




Tags:
 

Related Topics





Back to top