+ ShareSpark.net »  :::: Bollywood Zone » Indian TV Shows
|- The Kapil Sharma Show (2016) - 720p - Full Episode 32 - WebDL - x264 - AAC [xDM]


One Plus 6

The Kapil Sharma Show (2016) - 720p - Full Episode 32 - WebDL - x264 - AAC [xDM]

0 Members and 1 Guest are viewing this topic.

August 08, 2016, 05:53:36 AM
  • *****************
  • Head Admin
  • Legend Member
  • *****
  • Topic Author
  • Thank You: 6651
  • Reputation: 2914
  • Activity:
    81%
  • Country: in
  • Posts: 18775
  • Topics: 10946
  • Join Date: Mar 2012
  • The Time Is Now......







Complete name :The Kapil Sharma Show (2016) - Epi 32 - 720p - Full Episode - WebDL - x264 - AAC[xDM].mkv
Format : Matroska
Format version : Version 4 / Version 2
File size : 728 MiB
Duration : 1 h 2 min
Overall bit rate : 1 628 kb/s
Encoded date : UTC 2016-08-07 19:57:41
Writing application : mkvmerge v9.3.1 ('Mask Machine') 64bit
Writing library : libebml v1.3.4 + libmatroska v1.4.5

Video
ID : 1
Format : AVC
Format/Info : Advanced Video Codec
Format profile : [email protected]
Format settings, CABAC : Yes
Format settings, ReFrames : 3 frames
Format settings, GOP : M=1, N=50
Codec ID : V_MPEG4/ISO/AVC
Duration : 1 h 2 min
Bit rate : 1 498 kb/s
Width : 1 280 pixels
Height : 720 pixels
Display aspect ratio : 16:9
Frame rate mode : Constant
Frame rate : 25.000 FPS
Color space : YUV
Chroma subsampling : 4:2:0
Bit depth : 8 bits
Scan type : Progressive
Bits/(Pixel*Frame) : 0.065
Stream size : 670 MiB (92%)
Title : xDM
Writing library : Zencoder Video Encoding System
Language : Hindi
Default : Yes
Forced : No
Color range : Limited
Color primaries : BT.709
Transfer characteristics : BT.709
Matrix coefficients : BT.709

Audio
ID : 2
Format : AAC
Format/Info : Advanced Audio Codec
Format profile : LC
Codec ID : A_AAC
Duration : 1 h 2 min
Bit rate : 128 kb/s
Channel(s) : 2 channels
Channel positions : Front: L R
Sampling rate : 44.1 kHz
Frame rate : 43.066 FPS (1024 spf)
Compression mode : Lossy
Delay relative to video : -60 ms
Stream size : 57.2 MiB (8%)
Title : xDM
Language : Hindi
Default : Yes
Forced : No


















































Share this topic on FacebookShare this topic on GoogleShare this topic on MySpaceShare this topic on TwitterShare this topic on Yahoo

« Last Edit: August 08, 2016, 06:12:38 AM by -Ð@Rk.ÐèVi£- »


Thanks given by:


Tags:
 

Related Topics





Back to top