+ ShareSpark.net »  :::: Bollywood Zone » Bollywood Movies (Original Rips) » High Resolution Movies
|- Sarbjit (2016) 1080p Blu-ray x264 AAC 5.1 Hindi ESub - DDR

Gif Cards 25% Off
  • Sarbjit (2016) 1080p Blu-ray x264 AAC 5.1 Hindi ESub - DDR 4 1
Currently:  

Sarbjit (2016) 1080p Blu-ray x264 AAC 5.1 Hindi ESub - DDR

0 Members and 1 Guest are viewing this topic.

August 11, 2016, 01:50:11 PM
  • *****************
  • Head Admin
  • Legend Member
  • *****
  • Topic Author
  • Thank You: 6612
  • Reputation: 2895
  • Activity:
    97.4%
  • Country: in
  • Posts: 18712
  • Topics: 10928
  • Join Date: Mar 2012
  • The Time Is Now......


** SARBJIT **

** 2016 **

** Tiny 1080p / Blu-Ray / x264 / AAC 5.1 **

** English Subtitle(s) **





Source : DDR Blu-ray BD50
Format : Matroska
File size : 2.07 GiB
Duration : 2h 11mn
Overall bit rate : 2 242 Kbps

Video
Format : AVC
Format/Info : Advanced Video Codec
Format profile : [email protected]
Format settings, CABAC : Yes
Format settings, ReFrames : 5 frames
Codec ID : V_MPEG4/ISO/AVC
Duration : 2h 11mn
Bit rate : 2 044 Kbps
Width : 1 920 pixels
Height : 800 pixels
Display aspect ratio : 2.40:1
Frame rate mode : Constant
Frame rate : 24.000 fps
Color space : YUV
Chroma subsampling : 4:2:0
Bit depth : 8 bits
Scan type : Progressive
Bits/(Pixel*Frame) : 0.055
Stream size : 1.88 GiB (91%)
Default : Yes
Forced : No
Color range : Limited
Color primaries : BT.709

Audio
Format : AAC
Format/Info : Advanced Audio Codec
Format profile : LC
Codec ID : A_AAC
Duration : 2h 11mn
Bit rate : 192 Kbps
Channel(s) : 6 channels
Channel positions : Front: L C R, Side: L R, LFE
Sampling rate : 48.0 KHz
Frame rate : 46.875 fps (1024 spf)
Compression mode : Lossy
Delay relative to video : 19ms
Stream size : 181 MiB (9%)
Language : Hindi
Default : Yes
Forced : No

Text
Format : VobSub
Muxing mode : zlib
Codec ID : S_VOBSUB
Codec ID/Info : Picture based subtitle format used on DVDs
Duration : 2h 4mn
Bit rate : 2 798 bps
Count of elements : 1579
Stream size : 2.49 MiB (0%)
Language : English
Default : Yes
Forced : No

Chapters = YES





























Share this topic on FacebookShare this topic on GoogleShare this topic on MySpaceShare this topic on TwitterShare this topic on Yahoo




Tags:
 

Related Topics




Back to top