+ ShareSpark.net »  :::: Bollywood Zone » Regional Movies » Regional Movies in Hindi
|- Akele Tum Akele Hum 2016 Dubbed Into Hindi 720p Web-Rip x264 AAC


TV and Appliances

Akele Tum Akele Hum 2016 Dubbed Into Hindi 720p Web-Rip x264 AAC

0 Members and 1 Guest are viewing this topic.

August 31, 2016, 03:40:28 PM
  • V.I.P.
  • Elite Member
  • ***
  • Topic Author
  • Thank You: 189
  • Reputation: 50
  • Activity:
    0%
  • Country: sa
  • Posts: 498
  • Topics: 469
  • Join Date: Jun 2014
  • ShareSpark Member







Quote
General
Complete name               : I:\Akele Tum Akele Hum 2016 Dubbed Into Hindi Web-Rip x264 AAC.mp4
Format                      : MPEG-4
Format profile              : Base Media / Version 2
Codec ID                    : mp42 (isom/mp42)
File size                   : 965 MiB
Duration                    : 1h 52mn
Overall bit rate mode       : Variable
Overall bit rate            : 1 201 Kbps
Encoded date                : UTC 2016-08-29 20:09:04
Tagged date                 : UTC 2016-08-29 20:09:04
gsst                        : 0
gstd                        : 6741635

Video
ID                          : 1
Format                      : AVC
Format/Info                 : Advanced Video Codec
Format profile              : [email protected]
Format settings, CABAC      : Yes
Format settings, ReFrames   : 3 frames
Codec ID                    : avc1
Codec ID/Info               : Advanced Video Coding
Duration                    : 1h 52mn
Bit rate                    : 1 072 Kbps
Width                       : 1 280 pixels
Height                      : 720 pixels
Display aspect ratio        : 16:9
Frame rate mode             : Constant
Frame rate                  : 25.000 fps
Color space                 : YUV
Chroma subsampling          : 4:2:0
Bit depth                   : 8 bits
Scan type                   : Progressive
Bits/(Pixel*Frame)          : 0.047
Stream size                 : 861 MiB (89%)
Encoded date                : UTC 2016-08-29 20:09:04
Tagged date                 : UTC 2016-08-29 20:09:04
Color range                 : Limited
Color primaries             : BT.709
Transfer characteristics    : BT.709
Matrix coefficients         : BT.709

Audio
ID                          : 2
Format                      : AAC
Format/Info                 : Advanced Audio Codec
Format profile              : LC
Codec ID                    : 40
Duration                    : 1h 52mn
Bit rate mode               : Variable
Bit rate                    : 126 Kbps
Channel(s)                  : 2 channels
Channel positions           : Front: L R
Sampling rate               : 44.1 KHz
Frame rate                  : 43.066 fps (1024 spf)
Compression mode            : Lossy
Stream size                 : 101 MiB (10%)
Encoded date                : UTC 2016-08-29 20:09:04
Tagged date                 : UTC 2016-08-29 20:09:04
__B!RoH!_MoN__
































Share this topic on FacebookShare this topic on GoogleShare this topic on MySpaceShare this topic on TwitterShare this topic on Yahoo

« Last Edit: August 31, 2016, 03:41:13 PM by __B!RoH!_MoN__ »



Tags:
 

Related Topics

  Subject / Started by Replies Last post
2 Replies
1346 Views
Last post July 30, 2014, 02:24:44 PM
by peater
0 Replies
923 Views
Last post July 17, 2014, 06:40:38 AM
by ★ ÃĴϻĮŤ ★
2 Replies
1083 Views
Last post July 21, 2014, 07:28:16 PM
by ıllıllı αнʍє иυя ıllıllı
6 Replies
967 Views
Last post March 15, 2019, 02:39:13 AM
by stargator
1 Replies
389 Views
Last post March 13, 2019, 12:01:15 PM
by Recluse




Back to top