+ ShareSpark.net »  :::: Dubbed Zone (Dubbed English in Hindi) » English Movies Dubbed in Hindi
|- SKIPTRACE 2016 HINDI 720P BLURAY X264 AC3 2.0 - MAXPRO With Google Drive Link

DTH Recharges 20% Back

SKIPTRACE 2016 HINDI 720P BLURAY X264 AC3 2.0 - MAXPRO With Google Drive Link

0 Members and 1 Guest are viewing this topic.

October 14, 2016, 03:13:02 AM
  • Global Moderator
  • Legend Member
  • *****
  • Topic Author
  • Thank You: 8866
  • Reputation: 1903
  • Activity:
    100%
  • Country: in
  • Posts: 4972
  • Topics: 4105
  • Join Date: Jan 2014
  • ıllıllı ѕмoĸιng ιѕ good ғor нealтн ıllıllı :)


SKIPTRACE 2016 HINDI 720P BLURAY X264 AC3 2.0 - MAXPRO



Format : Matroska
Format version : Version 2
File size : 1.50 GiB
Duration : 1h 47mn
Overall bit rate : 1 991 Kbps
Encoded date : UTC 2016-10-12 20:42:57
Writing application : mkvmerge v8.5.2 ('Crosses') 32bit
Writing library : libebml v1.3.3 + libmatroska v1.4.4

Source:Thanks to GECKOS for Video
Video
Format : AVC
Format/Info : Advanced Video Codec
Format profile : [email protected]/* */
Format settings, CABAC : Yes
Format settings, ReFrames : 4 frames
Codec ID : V_MPEG4/ISO/AVC
Duration : 1h 47mn
Bit rate : 1 830 Kbps
Width : 1 280 pixels
Height : 536 pixels
Display aspect ratio : 2.40:1
Frame rate mode : Constant
Frame rate : 23.976 (24000/1001) fps
Color space : YUV
Chroma subsampling : 4:2:0
Bit depth : 8 bits
Scan type : Progressive
Bits/(Pixel*Frame) : 0.111
Stream size : 1.38 GiB (92%)
Writing library : x264 core 148 r2638 7599210
Default : Yes
Forced : No

Source:Thanks to Dr.Star for Hindi Audio
Audio
Format : AC-3
Format/Info : Audio Coding 3
Mode extension : CM (complete main)
Format settings, Endianness : Big
Codec ID : A_AC3
Duration : 1h 47mn
Bit rate mode : Constant
Bit rate : 160 Kbps
Channel(s) : 2 channels
Channel positions : Front: L R
Sampling rate : 48.0 KHz
Frame rate : 31.250 fps (1536 spf)
Compression mode : Lossy
Stream size : 123 MiB (8%)
Language : Hindi
Default : Yes
Forced : No













Google Drive Link






Don't walk as you are king, walk as you don't care who the king is....!!
Never argue with an idiot. They drag you down to their level and then beat you with experience?

Share this topic on FacebookShare this topic on GoogleShare this topic on MySpaceShare this topic on TwitterShare this topic on Yahoo




Don't walk as you are king, walk as you don't care who the king is....!!

Tags:
 

Related Topics




Back to top