+ ShareSpark.net »  :::: Bollywood Zone » Indian TV Shows
|- Bigg Boss 10 (Premiere) 16th October 2016 WEB-HD Untouched 720p [Exclusive]


100% Recharge Offer

Bigg Boss 10 (Premiere) 16th October 2016 WEB-HD Untouched 720p [Exclusive]

0 Members and 1 Guest are viewing this topic.

October 17, 2016, 05:13:47 AM
  • V.I.P.
  • Elite Member
  • ***
  • Topic Author
  • Thank You: 189
  • Reputation: 50
  • Activity:
    0%
  • Country: sa
  • Posts: 498
  • Topics: 469
  • Join Date: Jun 2014
  • ShareSpark Member







Bigg.Boss.10.(Premiere).16th.October.2016.HDTV..720p.[Bigg Boss]

Format                      : MPEG-4
Format profile              : Base Media
Codec ID                    : isom (isom/iso2/avc1/mp41)
File size                   : 2.18 GiB
Duration                    : 1 h 56 min

Video
ID                          : 1
Format                      : AVC
Format/Info                 : Advanced Video Codec
Format profile              : [email protected]
Format settings, CABAC      : No
Format settings, ReFrames   : 2 frames
Format settings, GOP        : M=1, N=24
Muxing mode                 : Container [email protected]
Codec ID                    : avc1
Codec ID/Info               : Advanced Video Coding
Duration                    : 1 h 56 min
Bit rate mode               : Variable
Bit rate                    : 2 563 kb/s
Maximum bit rate            : 3 750 kb/s
Width                       : 1 280 pixels
Height                      : 720 pixels
Display aspect ratio        : 16:9
Frame rate mode             : Constant
Frame rate                  : 25.000 FPS
Stream size                 : 2.08 GiB (95%)

Audio
ID                          : 2
Format                      : AAC
Format/Info                 : Advanced Audio Codec
Format profile              : LC
Codec ID                    : 40
Duration                    : 1 h 56 min
Bit rate mode               : Variable
Bit rate                    : 123 kb/s
Maximum bit rate            : 128 kb/s
Channel(s)                  : 2 channels
Channel positions           : Front: L R
Sampling rate               : 48.0 kHz
Frame rate                  : 46.875 FPS (1024 spf)
Compression mode            : Lossy
Stream size                 : 102 MiB (5%)
__B!RoH!_MoN__


























Share this topic on FacebookShare this topic on GoogleShare this topic on MySpaceShare this topic on TwitterShare this topic on Yahoo




October 17, 2016, 08:58:39 AM
Reply #1
  • Begginer
  • **
  • Thank You: 0
  • Reputation: 0
  • Activity:
    0%
  • Country: in
  • Posts: 84
  • Topics: 1
  • Join Date: Jul 2015
  • ShareSpark Member

Tags:
 

Related Topics

  Subject / Started by Replies Last post
8 Replies
1548 Views
Last post September 17, 2013, 05:10:58 PM
by ~AтσмPяσ~
3 Replies
1126 Views
Last post September 17, 2013, 07:09:57 PM
by zillastate
0 Replies
637 Views
Last post December 17, 2014, 09:41:29 PM
by ♫♪ RΩCK BΩY ♥♫
0 Replies
604 Views
Last post October 15, 2015, 07:14:44 AM
by s¡lєит_αssαss¡и
0 Replies
853 Views
Last post January 17, 2016, 04:15:08 AM
by mahimapu




Back to top